Best Forum
 
DomovGalleryRegistráciaPrihlásenie

Share
 

 Huntsman Winter's War, The / Lovec: Zimní válka (2016)

Goto down 
AutorSpráva
Jack86
Pokročilý
Pokročilý


Počet príspevkov : 133
Registration date : 10.02.2010

Huntsman Winter's War, The / Lovec: Zimní válka (2016) Empty
OdoslaťPredmet: Huntsman Winter's War, The / Lovec: Zimní válka (2016)   Huntsman Winter's War, The / Lovec: Zimní válka (2016) Icon_minitime1Po august 01, 2016 5:23 am

Huntsman Winter's War, The / Lovec: Zimní válka (2016) Irl51pxp247r


kód:

http://www.csfd.cz/film/323492-lovec-zimni-valka/prehled/
http://www.imdb.com/title/tt2381991/combined


[size=140]The.Huntsman.Winters.War.2016.EXTENDED.1080p.BluRay.x264.DTS-FGT + titulky[/size]

kód:
The.Huntsman.Winters.War.2016.EXTENDED.1080p.BluRay.x264.DTS-FGT
Format                      : Matroska
Format version              : Version 4 / Version 2
File size                  : 11.0 GiB
Duration                    : 2h 0mn
Overall bit rate            : 13.1 Mbps
Movie name                  : The.Huntsman.Winters.War.2016.EXTENDED.1080p.BluRay.x264.DTS-FGT
Encoded date                : UTC 2016-07-28 12:06:48
Writing application        : mkvmerge v9.3.1 ('Mask Machine') 64bit
Writing library            : libebml v1.3.4 + libmatroska v1.4.5
Cover                      : Yes
Attachments                : small_cover.jpg / small_cover_land.jpg / cover.jpg / cover_land.jpg

Video
ID                          : 1
Format                      : AVC
Format/Info                : Advanced Video Codec
Format profile              : High@L4.1
Format settings, CABAC      : Yes
Format settings, ReFrames  : 5 frames
Codec ID                    : V_MPEG4/ISO/AVC
Duration                    : 2h 0mn
Bit rate                    : 11.4 Mbps
Width                      : 1 920 pixels
Height                      : 800 pixels
Display aspect ratio        : 2.40:1
Frame rate mode            : Constant
Frame rate                  : 23.976 (24000/1001) fps
Color space                : YUV
Chroma subsampling          : 4:2:0
Bit depth                  : 8 bits
Scan type                  : Progressive
Bits/(Pixel*Frame)          : 0.308
Stream size                : 9.53 GiB (87%)
Writing library            : x264 core 148 r2638 7599210
Encoding settings          : cabac=1 / ref=5 / deblock=1:-3:-3 / analyse=0x3:0x133 / me=umh / subme=10 / psy=1 / psy_rd=1.00:0.15 / mixed_ref=1 / me_range=24 / chroma_me=1 / trellis=2 / 8x8dct=1 / cqm=0 / deadzone=21,11 / fast_pskip=1 / chroma_qp_offset=-3 / threads=12 / lookahead_threads=2 / sliced_threads=0 / nr=0 / decimate=1 / interlaced=0 / bluray_compat=0 / constrained_intra=0 / bframes=8 / b_pyramid=2 / b_adapt=2 / b_bias=0 / direct=3 / weightb=1 / open_gop=0 / weightp=2 / keyint=240 / keyint_min=23 / scenecut=40 / intra_refresh=0 / rc_lookahead=60 / rc=crf / mbtree=1 / crf=17.0 / qcomp=0.60 / qpmin=0 / qpmax=51 / qpstep=4 / vbv_maxrate=50000 / vbv_bufsize=62500 / crf_max=0.0 / nal_hrd=none / filler=0 / ip_ratio=1.30 / aq=3:1.00
Language                    : English
Default                    : Yes
Forced                      : No
Color range                : Limited
Color primaries            : BT.709
Matrix coefficients        : BT.709

Audio
ID                          : 2
Format                      : DTS
Format/Info                : Digital Theater Systems
Mode                        : 16
Format settings, Endianness : Big
Codec ID                    : A_DTS
Duration                    : 2h 0mn
Bit rate mode              : Constant
Bit rate                    : 1 509 Kbps
Channel(s)                  : 6 channels
Channel positions          : Front: L C R, Side: L R, LFE
Sampling rate              : 48.0 KHz
Frame rate                  : 93.750 fps (512 spf)
Bit depth                  : 24 bits
Compression mode            : Lossy
Stream size                : 1.27 GiB (11%)
Language                    : English
Default                    : Yes
Forced                      : No

Text #1
ID                          : 3
Format                      : UTF-8
Codec ID                    : S_TEXT/UTF8
Codec ID/Info              : UTF-8 Plain Text
Language                    : English
Default                    : Yes
Forced                      : No

Text #2
ID                          : 4
Format                      : UTF-8
Codec ID                    : S_TEXT/UTF8
Codec ID/Info              : UTF-8 Plain Text
Title                      : SDH
Language                    : English
Default                    : No
Forced                      : No

Text #3
ID                          : 5
Format                      : UTF-8
Codec ID                    : S_TEXT/UTF8
Codec ID/Info              : UTF-8 Plain Text
Language                    : Spanish
Default                    : No
Forced                      : No


kód:

http://www.fastshare.cz/6278197/tfsdyb08de61rwswnhet.part1.rar
http://www.fastshare.cz/6278222/tfsdyb08de61rwswnhet.part2.rar
http://www.fastshare.cz/6278249/tfsdyb08de61rwswnhet.part3.rar
http://www.fastshare.cz/6278283/tfsdyb08de61rwswnhet.part4.rar
http://www.fastshare.cz/6278317/tfsdyb08de61rwswnhet.part5.rar
http://www.fastshare.cz/6278334/tfsdyb08de61rwswnhet.part6.rar

kód:

https://sdilej.cz/7905111/TFSDyB08DE61rWsWnHeT.part1.rar
https://sdilej.cz/7905113/TFSDyB08DE61rWsWnHeT.part2.rar
https://sdilej.cz/7905116/TFSDyB08DE61rWsWnHeT.part3.rar
https://sdilej.cz/7905118/TFSDyB08DE61rWsWnHeT.part4.rar
https://sdilej.cz/7905119/TFSDyB08DE61rWsWnHeT.part5.rar
https://sdilej.cz/7905120/TFSDyB08DE61rWsWnHeT.part6.rar

[size=140]The.Huntsman.Winters.War.2016.EXTENDED.1080p.BluRay.x264.DTS-HD.MA.7.1-FGT + titulky[/size]

kód:
The.Huntsman.Winters.War.2016.EXTENDED.1080p.BluRay.x264.DTS-HD.MA.7.1-FGT
Format                      : Matroska
Format version              : Version 4 / Version 2
File size                  : 13.1 GiB
Duration                    : 2h 0mn
Overall bit rate            : 15.6 Mbps
Movie name                  : The.Huntsman.Winters.War.2016.EXTENDED.1080p.BluRay.x264.DTS-HD.MA.7.1-FGT
Encoded date                : UTC 2016-07-28 19:21:34
Writing application        : mkvmerge v9.3.1 ('Mask Machine') 64bit
Writing library            : libebml v1.3.4 + libmatroska v1.4.5
Cover                      : Yes
Attachments                : small_cover.jpg / small_cover_land.jpg / cover.jpg / cover_land.jpg / small_cover.jpg / small_cover_land.jpg / cover.jpg / cover_land.jpg

Video
ID                          : 1
Format                      : AVC
Format/Info                : Advanced Video Codec
Format profile              : High@L4.1
Format settings, CABAC      : Yes
Format settings, ReFrames  : 5 frames
Codec ID                    : V_MPEG4/ISO/AVC
Duration                    : 2h 0mn
Width                      : 1 920 pixels
Height                      : 800 pixels
Display aspect ratio        : 2.40:1
Frame rate mode            : Constant
Frame rate                  : 23.976 (24000/1001) fps
Color space                : YUV
Chroma subsampling          : 4:2:0
Bit depth                  : 8 bits
Scan type                  : Progressive
Title                      : The.Huntsman.Winters.War.2016.EXTENDED.1080p.BluRay.x264.DTS-HD.MA.7.1-FGT
Writing library            : x264 core 148 r2638 7599210
Encoding settings          : cabac=1 / ref=5 / deblock=1:-3:-3 / analyse=0x3:0x133 / me=umh / subme=10 / psy=1 / psy_rd=1.00:0.15 / mixed_ref=1 / me_range=24 / chroma_me=1 / trellis=2 / 8x8dct=1 / cqm=0 / deadzone=21,11 / fast_pskip=1 / chroma_qp_offset=-3 / threads=12 / lookahead_threads=2 / sliced_threads=0 / nr=0 / decimate=1 / interlaced=0 / bluray_compat=0 / constrained_intra=0 / bframes=8 / b_pyramid=2 / b_adapt=2 / b_bias=0 / direct=3 / weightb=1 / open_gop=0 / weightp=2 / keyint=240 / keyint_min=23 / scenecut=40 / intra_refresh=0 / rc_lookahead=60 / rc=crf / mbtree=1 / crf=17.0 / qcomp=0.60 / qpmin=0 / qpmax=51 / qpstep=4 / vbv_maxrate=50000 / vbv_bufsize=62500 / crf_max=0.0 / nal_hrd=none / filler=0 / ip_ratio=1.30 / aq=3:1.00
Language                    : English
Default                    : Yes
Forced                      : No
Color range                : Limited
Color primaries            : BT.709
Matrix coefficients        : BT.709

Audio
ID                          : 2
Format                      : DTS
Format/Info                : Digital Theater Systems
Format profile              : X / MA / Core
Mode                        : 16
Format settings, Endianness : Big
Codec ID                    : A_DTS
Bit rate mode              : Variable / Variable / Constant
Bit rate                    : Unknown / Unknown / 1 509 Kbps
Channel(s)                  : Object Based / 8 channels / 6 channels
Channel positions          : Object Based / Front: L C R, Side: L R, Back: L R, LFE / Front: L C R, Side: L R, LFE
Sampling rate              :  / 48.0 KHz / 48.0 KHz
Frame rate                  : 93.750 fps (512 spf)
Bit depth                  :  / 24 bits / 24 bits
Compression mode            :  / Lossless / Lossy
Title                      : The.Huntsman.Winters.War.2016.EXTENDED.1080p.BluRay.x264.DTS-HD.MA.7.1-FGT
Language                    : English
Default                    : Yes
Forced                      : No

Text #1
ID                          : 3
Format                      : UTF-8
Codec ID                    : S_TEXT/UTF8
Codec ID/Info              : UTF-8 Plain Text
Title                      : English-SRT
Language                    : English
Default                    : Yes
Forced                      : No

Text #2
ID                          : 4
Format                      : UTF-8
Codec ID                    : S_TEXT/UTF8
Codec ID/Info              : UTF-8 Plain Text
Title                      : English-SDH-SRT
Language                    : English
Default                    : No
Forced                      : No

Text #3
ID                          : 5
Format                      : UTF-8
Codec ID                    : S_TEXT/UTF8
Codec ID/Info              : UTF-8 Plain Text
Title                      : Spanish-SRT
Language                    : Spanish
Default                    : No
Forced                      : No

Text #4
ID                          : 6
Format                      : PGS
Muxing mode                : zlib
Codec ID                    : S_HDMV/PGS
Codec ID/Info              : Picture based subtitle format used on BDs/HD-DVDs
Title                      : English-PGS
Language                    : English
Default                    : No
Forced                      : No

Text #5
ID                          : 7
Format                      : PGS
Muxing mode                : zlib
Codec ID                    : S_HDMV/PGS
Codec ID/Info              : Picture based subtitle format used on BDs/HD-DVDs
Title                      : Spanish-PGS
Language                    : Spanish
Default                    : No
Forced                      : No

Text #6
ID                          : 8
Format                      : PGS
Muxing mode                : zlib
Codec ID                    : S_HDMV/PGS
Codec ID/Info              : Picture based subtitle format used on BDs/HD-DVDs
Title                      : Catalan-PGS
Language                    : Catalan
Default                    : No
Forced                      : No

Text #7
ID                          : 9
Format                      : PGS
Muxing mode                : zlib
Codec ID                    : S_HDMV/PGS
Codec ID/Info              : Picture based subtitle format used on BDs/HD-DVDs
Title                      : French-PGS
Language                    : French
Default                    : No
Forced                      : No

Text #8
ID                          : 10
Format                      : PGS
Muxing mode                : zlib
Codec ID                    : S_HDMV/PGS
Codec ID/Info              : Picture based subtitle format used on BDs/HD-DVDs
Title                      : Hindi-PGS
Language                    : Hindi
Default                    : No
Forced                      : No

Text #9
ID                          : 11
Format                      : PGS
Muxing mode                : zlib
Codec ID                    : S_HDMV/PGS
Codec ID/Info              : Picture based subtitle format used on BDs/HD-DVDs
Title                      : Portuguese-PGS
Language                    : Portuguese
Default                    : No
Forced                      : No

Text #10
ID                          : 12
Format                      : PGS
Muxing mode                : zlib
Codec ID                    : S_HDMV/PGS
Codec ID/Info              : Picture based subtitle format used on BDs/HD-DVDs
Title                      : Arabic-PGS
Language                    : Arabic
Default                    : No
Forced                      : No

Text #11
ID                          : 13
Format                      : PGS
Muxing mode                : zlib
Codec ID                    : S_HDMV/PGS
Codec ID/Info              : Picture based subtitle format used on BDs/HD-DVDs
Title                      : Danish_PGS
Language                    : Danish
Default                    : No
Forced                      : No

Text #12
ID                          : 14
Format                      : PGS
Muxing mode                : zlib
Codec ID                    : S_HDMV/PGS
Codec ID/Info              : Picture based subtitle format used on BDs/HD-DVDs
Title                      : Dutch-PGS
Language                    : Dutch
Default                    : No
Forced                      : No

Text #13
ID                          : 15
Format                      : PGS
Muxing mode                : zlib
Codec ID                    : S_HDMV/PGS
Codec ID/Info              : Picture based subtitle format used on BDs/HD-DVDs
Title                      : Finnish-PGS
Language                    : Finnish
Default                    : No
Forced                      : No

Text #14
ID                          : 16
Format                      : PGS
Muxing mode                : zlib
Codec ID                    : S_HDMV/PGS
Codec ID/Info              : Picture based subtitle format used on BDs/HD-DVDs
Title                      : Icelandic-PGS
Language                    : Icelandic
Default                    : No
Forced                      : No

Text #15
ID                          : 17
Format                      : PGS
Muxing mode                : zlib
Codec ID                    : S_HDMV/PGS
Codec ID/Info              : Picture based subtitle format used on BDs/HD-DVDs
Title                      : Norwegian-PGS
Language                    : Norwegian
Default                    : No
Forced                      : No

Text #16
ID                          : 18
Format                      : PGS
Muxing mode                : zlib
Codec ID                    : S_HDMV/PGS
Codec ID/Info              : Picture based subtitle format used on BDs/HD-DVDs
Title                      : Sweidish-PGS
Language                    : Swedish
Default                    : No
Forced                      : No


kód:

http://www.fastshare.cz/6278652/tfmdyb08dee61rwsnwnshet.part1.rar
http://www.fastshare.cz/6278666/tfmdyb08dee61rwsnwnshet.part2.rar
http://www.fastshare.cz/6278675/tfmdyb08dee61rwsnwnshet.part3.rar
http://www.fastshare.cz/6278688/tfmdyb08dee61rwsnwnshet.part4.rar
http://www.fastshare.cz/6278701/tfmdyb08dee61rwsnwnshet.part5.rar
http://www.fastshare.cz/6278713/tfmdyb08dee61rwsnwnshet.part6.rar
http://www.fastshare.cz/6278722/tfmdyb08dee61rwsnwnshet.part7.rar

kód:

https://sdilej.cz/7905146/TFMDyB08DEE61rWsnWnsHeT.part1.rar
https://sdilej.cz/7905150/TFMDyB08DEE61rWsnWnsHeT.part2.rar
https://sdilej.cz/7905152/TFMDyB08DEE61rWsnWnsHeT.part3.rar
https://sdilej.cz/7905155/TFMDyB08DEE61rWsnWnsHeT.part4.rar
https://sdilej.cz/7905156/TFMDyB08DEE61rWsnWnsHeT.part7.rar
https://sdilej.cz/7905164/TFMDyB08DEE61rWsnWnsHeT.part5.rar
https://sdilej.cz/7905169/TFMDyB08DEE61rWsnWnsHeT.part6.rar

[size=140]The.Huntsman.Winters.War.2016.EXTENDED.1080p.BluRay.REMUX.AVC.DTS-HD.MA.7.1-FGT + titulky[/size]

kód:
The.Huntsman.Winters.War.2016.EXTENDED.1080p.BluRay.REMUX.AVC.DTS-HD.MA.7.1-FGT
Format                      : Matroska
Format version              : Version 4 / Version 2
File size                  : 36.0 GiB
Duration                    : 2h 0mn
Overall bit rate mode      : Variable
Overall bit rate            : 42.8 Mbps
Movie name                  : The.Huntsman.Winters.War.2016.EXTENDED.1080p.BluRay.REMUX.AVC.DTS-HD.MA.7.1-FGT
Encoded date                : UTC 2016-07-28 19:16:05
Writing application        : mkvmerge v9.3.1 ('Mask Machine') 64bit
Writing library            : libebml v1.3.4 + libmatroska v1.4.5
Cover                      : Yes
Attachments                : small_cover.jpg / small_cover_land.jpg / cover.jpg / cover_land.jpg

Video
ID                          : 1
Format                      : AVC
Format/Info                : Advanced Video Codec
Format profile              : High@L4.1
Format settings, CABAC      : Yes
Format settings, ReFrames  : 4 frames
Format settings, GOP        : M=3, N=12
Codec ID                    : V_MPEG4/ISO/AVC
Duration                    : 2h 0mn
Bit rate mode              : Variable
Maximum bit rate            : 30.0 Mbps
Width                      : 1 920 pixels
Height                      : 1 080 pixels
Display aspect ratio        : 16:9
Frame rate mode            : Constant
Frame rate                  : 23.976 (24000/1001) fps
Color space                : YUV
Chroma subsampling          : 4:2:0
Bit depth                  : 8 bits
Scan type                  : Progressive
Title                      : The.Huntsman.Winters.War.2016.EXTENDED.1080p.BluRay.REMUX.AVC.DTS-HD.MA.7.1-FGT
Language                    : English
Default                    : No
Forced                      : No

Audio #1
ID                          : 2
Format                      : DTS
Format/Info                : Digital Theater Systems
Format profile              : X / MA / Core
Mode                        : 16
Format settings, Endianness : Big
Codec ID                    : A_DTS
Bit rate mode              : Variable / Variable / Constant
Bit rate                    : Unknown / Unknown / 1 509 Kbps
Channel(s)                  : Object Based / 8 channels / 6 channels
Channel positions          : Object Based / Front: L C R, Side: L R, Back: L R, LFE / Front: L C R, Side: L R, LFE
Sampling rate              :  / 48.0 KHz / 48.0 KHz
Frame rate                  : 93.750 fps (512 spf)
Bit depth                  :  / 24 bits / 24 bits
Compression mode            :  / Lossless / Lossy
Title                      : The.Huntsman.Winters.War.2016.EXTENDED.1080p.BluRay.REMUX.AVC.DTS-HD.MA.7.1-FGT
Language                    : English
Default                    : Yes
Forced                      : No

Audio #2
ID                          : 3
Format                      : DTS
Format/Info                : Digital Theater Systems
Mode                        : 16
Format settings, Endianness : Big
Codec ID                    : A_DTS
Duration                    : 2h 0mn
Bit rate mode              : Constant
Bit rate                    : 1 509 Kbps
Channel(s)                  : 6 channels
Channel positions          : Front: L C R, Side: L R, LFE
Sampling rate              : 48.0 KHz
Frame rate                  : 93.750 fps (512 spf)
Bit depth                  : 24 bits
Compression mode            : Lossy
Stream size                : 1.27 GiB (4%)
Title                      : The.Huntsman.Winters.War.2016.EXTENDED.1080p.BluRay.REMUX.AVC.DTS-HD.MA.7.1-FGT
Language                    : English
Default                    : No
Forced                      : No

Audio #3
ID                          : 4
Format                      : DTS
Format/Info                : Digital Theater Systems
Mode                        : 16
Format settings, Endianness : Big
Codec ID                    : A_DTS
Duration                    : 2h 0mn
Bit rate mode              : Constant
Bit rate                    : 384 Kbps
Channel(s)                  : 2 channels
Channel positions          : Front: L R
Sampling rate              : 48.0 KHz
Frame rate                  : 93.750 fps (512 spf)
Bit depth                  : 24 bits
Compression mode            : Lossy
Stream size                : 330 MiB (1%)
Title                      : The.Huntsman.Winters.War.2016.EXTENDED.1080p.BluRay.REMUX.AVC.DTS-HD.MA.7.1-FGT
Language                    : English
Default                    : No
Forced                      : No

Audio #4
ID                          : 5
Format                      : DTS
Format/Info                : Digital Theater Systems
Format profile              : HRA / Core
Mode                        : 16
Format settings, Endianness : Big
Codec ID                    : A_DTS
Duration                    : 2h 0mn
Bit rate mode              : Constant
Bit rate                    : 2 046 Kbps / 1 509 Kbps
Channel(s)                  : 8 channels / 6 channels
Channel positions          : Front: L C R, Side: L R, Back: L R, LFE / Front: L C R, Side: L R, LFE
Sampling rate              : 48.0 KHz
Frame rate                  : 93.750 fps (512 spf)
Bit depth                  : 24 bits
Compression mode            : Lossy
Stream size                : 1.72 GiB (5%)
Title                      : The.Huntsman.Winters.War.2016.EXTENDED.1080p.BluRay.REMUX.AVC.DTS-HD.MA.7.1-FGT
Language                    : Spanish
Default                    : No
Forced                      : No

Audio #5
ID                          : 6
Format                      : DTS
Format/Info                : Digital Theater Systems
Mode                        : 16
Format settings, Endianness : Big
Codec ID                    : A_DTS
Duration                    : 2h 0mn
Bit rate mode              : Constant
Bit rate                    : 1 509 Kbps
Channel(s)                  : 6 channels
Channel positions          : Front: L C R, Side: L R, LFE
Sampling rate              : 48.0 KHz
Frame rate                  : 93.750 fps (512 spf)
Bit depth                  : 24 bits
Compression mode            : Lossy
Stream size                : 1.27 GiB (4%)
Title                      : The.Huntsman.Winters.War.2016.EXTENDED.1080p.BluRay.REMUX.AVC.DTS-HD.MA.7.1-FGT
Language                    : Spanish
Default                    : No
Forced                      : No

Audio #6
ID                          : 7
Format                      : DTS
Format/Info                : Digital Theater Systems
Format profile              : HRA / Core
Mode                        : 16
Format settings, Endianness : Big
Codec ID                    : A_DTS
Duration                    : 2h 0mn
Bit rate mode              : Constant
Bit rate                    : 2 046 Kbps / 1 509 Kbps
Channel(s)                  : 8 channels / 6 channels
Channel positions          : Front: L C R, Side: L R, Back: L R, LFE / Front: L C R, Side: L R, LFE
Sampling rate              : 48.0 KHz
Frame rate                  : 93.750 fps (512 spf)
Bit depth                  : 24 bits
Compression mode            : Lossy
Stream size                : 1.72 GiB (5%)
Title                      : The.Huntsman.Winters.War.2016.EXTENDED.1080p.BluRay.REMUX.AVC.DTS-HD.MA.7.1-FGT
Language                    : Catalan
Default                    : No
Forced                      : No

Audio #7
ID                          : 8
Format                      : DTS
Format/Info                : Digital Theater Systems
Mode                        : 16
Format settings, Endianness : Big
Codec ID                    : A_DTS
Duration                    : 2h 0mn
Bit rate mode              : Constant
Bit rate                    : 1 509 Kbps
Channel(s)                  : 6 channels
Channel positions          : Front: L C R, Side: L R, LFE
Sampling rate              : 48.0 KHz
Frame rate                  : 93.750 fps (512 spf)
Bit depth                  : 24 bits
Compression mode            : Lossy
Stream size                : 1.27 GiB (4%)
Title                      : The.Huntsman.Winters.War.2016.EXTENDED.1080p.BluRay.REMUX.AVC.DTS-HD.MA.7.1-FGT
Language                    : Catalan
Default                    : No
Forced                      : No

Audio #8
ID                          : 9
Format                      : DTS
Format/Info                : Digital Theater Systems
Format profile              : HRA / Core
Mode                        : 16
Format settings, Endianness : Big
Codec ID                    : A_DTS
Duration                    : 2h 0mn
Bit rate mode              : Constant
Bit rate                    : 2 046 Kbps / 1 509 Kbps
Channel(s)                  : 8 channels / 6 channels
Channel positions          : Front: L C R, Side: L R, Back: L R, LFE / Front: L C R, Side: L R, LFE
Sampling rate              : 48.0 KHz
Frame rate                  : 93.750 fps (512 spf)
Bit depth                  : 24 bits
Compression mode            : Lossy
Stream size                : 1.72 GiB (5%)
Title                      : The.Huntsman.Winters.War.2016.EXTENDED.1080p.BluRay.REMUX.AVC.DTS-HD.MA.7.1-FGT
Language                    : French
Default                    : No
Forced                      : No

Audio #9
ID                          : 10
Format                      : DTS
Format/Info                : Digital Theater Systems
Mode                        : 16
Format settings, Endianness : Big
Codec ID                    : A_DTS
Duration                    : 2h 0mn
Bit rate mode              : Constant
Bit rate                    : 1 509 Kbps
Channel(s)                  : 6 channels
Channel positions          : Front: L C R, Side: L R, LFE
Sampling rate              : 48.0 KHz
Frame rate                  : 93.750 fps (512 spf)
Bit depth                  : 24 bits
Compression mode            : Lossy
Stream size                : 1.27 GiB (4%)
Title                      : The.Huntsman.Winters.War.2016.EXTENDED.1080p.BluRay.REMUX.AVC.DTS-HD.MA.7.1-FGT
Language                    : French
Default                    : No
Forced                      : No

Audio #10
ID                          : 11
Format                      : DTS
Format/Info                : Digital Theater Systems
Mode                        : 16
Format settings, Endianness : Big
Codec ID                    : A_DTS
Duration                    : 2h 0mn
Bit rate mode              : Constant
Bit rate                    : 768 Kbps
Channel(s)                  : 6 channels
Channel positions          : Front: L C R, Side: L R, LFE
Sampling rate              : 48.0 KHz
Frame rate                  : 93.750 fps (512 spf)
Bit depth                  : 24 bits
Compression mode            : Lossy
Stream size                : 660 MiB (2%)
Title                      : The.Huntsman.Winters.War.2016.EXTENDED.1080p.BluRay.REMUX.AVC.DTS-HD.MA.7.1-FGT
Language                    : Hindi
Default                    : No
Forced                      : No

Audio #11
ID                          : 12
Format                      : AC-3
Format/Info                : Audio Coding 3
Format profile              : Dolby Digital
Mode extension              : CM (complete main)
Format settings, Endianness : Big
Codec ID                    : A_AC3
Duration                    : 2h 0mn
Bit rate mode              : Constant
Bit rate                    : 192 Kbps
Channel(s)                  : 2 channels
Channel positions          : Front: L R
Sampling rate              : 48.0 KHz
Frame rate                  : 31.250 fps (1536 spf)
Compression mode            : Lossy
Stream size                : 165 MiB (0%)
Title                      : The.Huntsman.Winters.War.2016.EXTENDED.1080p.BluRay.REMUX.AVC.DTS-HD.MA.7.1-FGT
Language                    : English
Default                    : No
Forced                      : No

Text #1
ID                          : 13
Format                      : PGS
Muxing mode                : zlib
Codec ID                    : S_HDMV/PGS
Codec ID/Info              : Picture based subtitle format used on BDs/HD-DVDs
Title                      : English-PGS
Language                    : English
Default                    : No
Forced                      : No

Text #2
ID                          : 14
Format                      : PGS
Muxing mode                : zlib
Codec ID                    : S_HDMV/PGS
Codec ID/Info              : Picture based subtitle format used on BDs/HD-DVDs
Title                      : Spanish-PGS
Language                    : Spanish
Default                    : No
Forced                      : No

Text #3
ID                          : 15
Format                      : PGS
Muxing mode                : zlib
Codec ID                    : S_HDMV/PGS
Codec ID/Info              : Picture based subtitle format used on BDs/HD-DVDs
Title                      : Catalan-PGS
Language                    : Catalan
Default                    : No
Forced                      : No

Text #4
ID                          : 16
Format                      : PGS
Muxing mode                : zlib
Codec ID                    : S_HDMV/PGS
Codec ID/Info              : Picture based subtitle format used on BDs/HD-DVDs
Title                      : French-PGS
Language                    : French
Default                    : No
Forced                      : No

Text #5
ID                          : 17
Format                      : PGS
Muxing mode                : zlib
Codec ID                    : S_HDMV/PGS
Codec ID/Info              : Picture based subtitle format used on BDs/HD-DVDs
Title                      : Hindi-PGS
Language                    : Hindi
Default                    : No
Forced                      : No

Text #6
ID                          : 18
Format                      : PGS
Muxing mode                : zlib
Codec ID                    : S_HDMV/PGS
Codec ID/Info              : Picture based subtitle format used on BDs/HD-DVDs
Title                      : Portuguese-PGS
Language                    : Portuguese
Default                    : No
Forced                      : No

Text #7
ID                          : 19
Format                      : PGS
Muxing mode                : zlib
Codec ID                    : S_HDMV/PGS
Codec ID/Info              : Picture based subtitle format used on BDs/HD-DVDs
Title                      : Arabic-PGS
Language                    : Arabic
Default                    : No
Forced                      : No

Text #8
ID                          : 20
Format                      : PGS
Muxing mode                : zlib
Codec ID                    : S_HDMV/PGS
Codec ID/Info              : Picture based subtitle format used on BDs/HD-DVDs
Title                      : Danish_PGS
Language                    : Danish
Default                    : No
Forced                      : No

Text #9
ID                          : 21
Format                      : PGS
Muxing mode                : zlib
Codec ID                    : S_HDMV/PGS
Codec ID/Info              : Picture based subtitle format used on BDs/HD-DVDs
Title                      : Dutch-PGS
Language                    : Dutch
Default                    : No
Forced                      : No

Text #10
ID                          : 22
Format                      : PGS
Muxing mode                : zlib
Codec ID                    : S_HDMV/PGS
Codec ID/Info              : Picture based subtitle format used on BDs/HD-DVDs
Title                      : Finnish-PGS
Language                    : Finnish
Default                    : No
Forced                      : No

Text #11
ID                          : 23
Format                      : PGS
Muxing mode                : zlib
Codec ID                    : S_HDMV/PGS
Codec ID/Info              : Picture based subtitle format used on BDs/HD-DVDs
Title                      : Icelandic-PGS
Language                    : Icelandic
Default                    : No
Forced                      : No

Text #12
ID                          : 24
Format                      : PGS
Muxing mode                : zlib
Codec ID                    : S_HDMV/PGS
Codec ID/Info              : Picture based subtitle format used on BDs/HD-DVDs
Title                      : Norwegian-PGS
Language                    : Norwegian
Default                    : No
Forced                      : No

Text #13
ID                          : 25
Format                      : PGS
Muxing mode                : zlib
Codec ID                    : S_HDMV/PGS
Codec ID/Info              : Picture based subtitle format used on BDs/HD-DVDs
Title                      : Sweidish-PGS
Language                    : Swedish
Default                    : No
Forced                      : No

Text #14
ID                          : 26
Format                      : PGS
Muxing mode                : zlib
Codec ID                    : S_HDMV/PGS
Codec ID/Info              : Picture based subtitle format used on BDs/HD-DVDs
Title                      : English-COMMENTARY-PGS
Language                    : English
Default                    : No
Forced                      : No

Text #15
ID                          : 27
Format                      : PGS
Muxing mode                : zlib
Codec ID                    : S_HDMV/PGS
Codec ID/Info              : Picture based subtitle format used on BDs/HD-DVDs
Title                      : Spanish-COMMENTARY-PGS
Language                    : Spanish
Default                    : No
Forced                      : No

Text #16
ID                          : 28
Format                      : PGS
Muxing mode                : zlib
Codec ID                    : S_HDMV/PGS
Codec ID/Info              : Picture based subtitle format used on BDs/HD-DVDs
Title                      : Catalan-COMMENTARY-PGS
Language                    : Catalan
Default                    : No
Forced                      : No

Text #17
ID                          : 29
Format                      : PGS
Muxing mode                : zlib
Codec ID                    : S_HDMV/PGS
Codec ID/Info              : Picture based subtitle format used on BDs/HD-DVDs
Title                      : French-COMMENTARY-PGS
Language                    : French
Default                    : No
Forced                      : No

Text #18
ID                          : 30
Format                      : PGS
Muxing mode                : zlib
Codec ID                    : S_HDMV/PGS
Codec ID/Info              : Picture based subtitle format used on BDs/HD-DVDs
Title                      : Spanish-FOCED-PGS
Language                    : Spanish
Default                    : No
Forced                      : No

Text #19
ID                          : 31
Format                      : PGS
Muxing mode                : zlib
Codec ID                    : S_HDMV/PGS
Codec ID/Info              : Picture based subtitle format used on BDs/HD-DVDs
Title                      : Catalan-FORCED-PGS
Language                    : Catalan
Default                    : No
Forced                      : No

Text #20
ID                          : 32
Format                      : PGS
Muxing mode                : zlib
Codec ID                    : S_HDMV/PGS
Codec ID/Info              : Picture based subtitle format used on BDs/HD-DVDs
Title                      : French-FORCED-PGS
Language                    : French
Default                    : No
Forced                      : No

Text #21
ID                          : 33
Format                      : PGS
Muxing mode                : zlib
Codec ID                    : S_HDMV/PGS
Codec ID/Info              : Picture based subtitle format used on BDs/HD-DVDs
Title                      : Hindi-FORCED-PGS
Language                    : Hindi
Default                    : No
Forced                      : No

Menu
00:00:00.000                : en:Chapter 01
00:06:26.427                : en:Chapter 02
00:09:26.857                : en:Chapter 03
00:15:03.193                : en:Chapter 04
00:21:33.500                : en:Chapter 05
00:30:17.857                : en:Chapter 06
00:36:08.166                : en:Chapter 07
00:40:55.661                : en:Chapter 08
00:46:56.438                : en:Chapter 09
00:52:05.747                : en:Chapter 10
00:59:35.530                : en:Chapter 11
01:04:23.943                : en:Chapter 12
01:11:16.689                : en:Chapter 13
01:15:19.223                : en:Chapter 14
01:22:42.832                : en:Chapter 15
01:28:15.206                : en:Chapter 16
01:33:58.007                : en:Chapter 17
01:39:21.956                : en:Chapter 18
01:48:13.904                : en:Chapter 19
01:50:19.571                : en:Chapter 20


kód:

http://www.fastshare.cz/6278908/tfahdxmryrb08de61rwswnshet.part01.rar
http://www.fastshare.cz/6278923/tfahdxmryrb08de61rwswnshet.part02.rar
http://www.fastshare.cz/6278939/tfahdxmryrb08de61rwswnshet.part03.rar
http://www.fastshare.cz/6278955/tfahdxmryrb08de61rwswnshet.part04.rar
http://www.fastshare.cz/6278973/tfahdxmryrb08de61rwswnshet.part05.rar
http://www.fastshare.cz/6278998/tfahdxmryrb08de61rwswnshet.part06.rar
http://www.fastshare.cz/6279034/tfahdxmryrb08de61rwswnshet.part07.rar
http://www.fastshare.cz/6279074/tfahdxmryrb08de61rwswnshet.part08.rar
http://www.fastshare.cz/6279102/tfahdxmryrb08de61rwswnshet.part09.rar
http://www.fastshare.cz/6279129/tfahdxmryrb08de61rwswnshet.part10.rar
http://www.fastshare.cz/6279165/tfahdxmryrb08de61rwswnshet.part11.rar
http://www.fastshare.cz/6279193/tfahdxmryrb08de61rwswnshet.part12.rar
http://www.fastshare.cz/6279220/tfahdxmryrb08de61rwswnshet.part13.rar
http://www.fastshare.cz/6279266/tfahdxmryrb08de61rwswnshet.part14.rar
http://www.fastshare.cz/6279313/tfahdxmryrb08de61rwswnshet.part15.rar
http://www.fastshare.cz/6279366/tfahdxmryrb08de61rwswnshet.part16.rar
http://www.fastshare.cz/6279424/tfahdxmryrb08de61rwswnshet.part17.rar
http://www.fastshare.cz/6279462/tfahdxmryrb08de61rwswnshet.part18.rar
http://www.fastshare.cz/6279486/tfahdxmryrb08de61rwswnshet.part19.rar

kód:

https://sdilej.cz/7905187/TFAHDXMRyRB08DE61rWsWnsHeT.part01.rar
https://sdilej.cz/7905189/TFAHDXMRyRB08DE61rWsWnsHeT.part02.rar
https://sdilej.cz/7905190/TFAHDXMRyRB08DE61rWsWnsHeT.part03.rar
https://sdilej.cz/7905194/TFAHDXMRyRB08DE61rWsWnsHeT.part04.rar
https://sdilej.cz/7905198/TFAHDXMRyRB08DE61rWsWnsHeT.part05.rar
https://sdilej.cz/7905203/TFAHDXMRyRB08DE61rWsWnsHeT.part06.rar
https://sdilej.cz/7905207/TFAHDXMRyRB08DE61rWsWnsHeT.part07.rar
https://sdilej.cz/7905208/TFAHDXMRyRB08DE61rWsWnsHeT.part10.rar
https://sdilej.cz/7905209/TFAHDXMRyRB08DE61rWsWnsHeT.part08.rar
https://sdilej.cz/7905211/TFAHDXMRyRB08DE61rWsWnsHeT.part09.rar
https://sdilej.cz/7905213/TFAHDXMRyRB08DE61rWsWnsHeT.part11.rar
https://sdilej.cz/7905216/TFAHDXMRyRB08DE61rWsWnsHeT.part12.rar
https://sdilej.cz/7905220/TFAHDXMRyRB08DE61rWsWnsHeT.part15.rar
https://sdilej.cz/7905222/TFAHDXMRyRB08DE61rWsWnsHeT.part16.rar
https://sdilej.cz/7905225/TFAHDXMRyRB08DE61rWsWnsHeT.part13.rar
https://sdilej.cz/7905226/TFAHDXMRyRB08DE61rWsWnsHeT.part14.rar
https://sdilej.cz/7905228/TFAHDXMRyRB08DE61rWsWnsHeT.part17.rar
https://sdilej.cz/7905230/TFAHDXMRyRB08DE61rWsWnsHeT.part18.rar
https://sdilej.cz/7905231/TFAHDXMRyRB08DE61rWsWnsHeT.part19.rar


Upload 3% na opravu dat

no pass
Návrat hore Goto down
Zobrazit informácie o autorovi
 
Huntsman Winter's War, The / Lovec: Zimní válka (2016)
Návrat hore 
Strana 1 z 1

Povolenie tohoto fóra:Nemôžete odpovedať na témy v tomto fóre.
Best Forum :: Filmy Download :: HD-
Prejdi na: