Best Forum
 
DomovGalleryRegistráciaPrihlásenie

Share
 

 Criminal / Criminal (2016)

Goto down 
AutorSpráva
Jack86
Pokročilý
Pokročilý


Počet príspevkov : 133
Registration date : 10.02.2010

Criminal / Criminal (2016) Empty
OdoslaťPredmet: Criminal / Criminal (2016)   Criminal / Criminal (2016) Icon_minitime1So júl 16, 2016 12:47 am

Criminal / Criminal (2016) 572m3mg3zoc1


kód:

http://www.csfd.cz/film/383990-criminal/prehled/
http://www.imdb.com/title/tt3014866/combined


[size=140]Criminal.2016.1080p.BluRay.x264-GECKOS + titulky[/size]


Audio: EN
Titulky: CZ


kód:
Criminal.2016.1080p.BluRay.x264-GECKOS
Format                      : Matroska
Format version              : Version 4 / Version 2
File size                  : 7.94 GiB
Duration                    : 1h 53mn
Overall bit rate            : 10.0 Mbps
Encoded date                : UTC 2016-07-14 01:32:56
Writing application        : mkvmerge v8.3.0 ('Over the Horizon') 64bit
Writing library            : libebml v1.3.1 + libmatroska v1.4.2

Video
ID                          : 1
Format                      : AVC
Format/Info                : Advanced Video Codec
Format profile              : High@L4.1
Format settings, CABAC      : Yes
Format settings, ReFrames  : 5 frames
Codec ID                    : V_MPEG4/ISO/AVC
Duration                    : 1h 53mn
Bit rate                    : 8 504 Kbps
Width                      : 1 920 pixels
Height                      : 808 pixels
Display aspect ratio        : 2.40:1
Frame rate mode            : Constant
Frame rate                  : 23.976 fps
Color space                : YUV
Chroma subsampling          : 4:2:0
Bit depth                  : 8 bits
Scan type                  : Progressive
Bits/(Pixel*Frame)          : 0.229
Stream size                : 6.74 GiB (85%)
Writing library            : x264 core 148 r2692 64f4e24
Encoding settings          : cabac=1 / ref=5 / deblock=1:0:0 / analyse=0x3:0x133 / me=umh / subme=7 / psy=1 / psy_rd=1.00:0.00 / mixed_ref=1 / me_range=16 / chroma_me=1 / trellis=1 / 8x8dct=1 / cqm=0 / deadzone=21,11 / fast_pskip=0 / chroma_qp_offset=-2 / threads=24 / lookahead_threads=4 / sliced_threads=0 / nr=0 / decimate=1 / interlaced=0 / bluray_compat=0 / constrained_intra=0 / bframes=3 / b_pyramid=2 / b_adapt=1 / b_bias=0 / direct=1 / weightb=1 / open_gop=0 / weightp=2 / keyint=250 / keyint_min=23 / scenecut=40 / intra_refresh=0 / rc_lookahead=40 / rc=2pass / mbtree=1 / bitrate=8504 / ratetol=1.0 / qcomp=0.60 / qpmin=0 / qpmax=69 / qpstep=4 / cplxblur=20.0 / qblur=0.5 / ip_ratio=1.40 / aq=1:1.00
Language                    : English
Default                    : Yes
Forced                      : No

Audio
ID                          : 2
Format                      : DTS
Format/Info                : Digital Theater Systems
Mode                        : 16
Format settings, Endianness : Big
Codec ID                    : A_DTS
Duration                    : 1h 53mn
Bit rate mode              : Constant
Bit rate                    : 1 509 Kbps
Channel(s)                  : 6 channels
Channel positions          : Front: L C R, Side: L R, LFE
Sampling rate              : 48.0 KHz
Frame rate                  : 93.750 fps (512 spf)
Bit depth                  : 24 bits
Compression mode            : Lossy
Stream size                : 1.20 GiB (15%)
Language                    : English
Default                    : Yes
Forced                      : No

Menu
00:00:00.000                : en:00:00:00.000
00:10:41.266                : en:00:10:41.266
00:15:32.265                : en:00:15:32.265
00:23:45.340                : en:00:23:45.340
00:30:56.563                : en:00:30:56.563
00:36:01.367                : en:00:36:01.367
00:45:36.317                : en:00:45:36.317
00:48:48.509                : en:00:48:48.509
00:54:51.455                : en:00:54:51.455
01:01:46.244                : en:01:01:46.244
01:08:32.608                : en:01:08:32.608
01:16:11.609                : en:01:16:11.609
01:22:20.143                : en:01:22:20.143
01:29:52.011                : en:01:29:52.011
01:36:46.092                : en:01:36:46.092
01:42:08.497                : en:01:42:08.497

kód:

http://www.fastshare.cz/6178066/scgylb08016102lc.part1.rar
http://www.fastshare.cz/6178163/scgylb08016102lc.part2.rar
http://www.fastshare.cz/6178291/scgylb08016102lc.part3.rar
http://www.fastshare.cz/6178417/scgylb08016102lc.part4.rar
http://www.fastshare.cz/6178427/scgylb08016102lc.part5.rar

kód:

http://sdilej.cz/7877184/dBkZ/SCGylB08016102lC.part1.rar
http://sdilej.cz/7877189/ghpE/SCGylB08016102lC.part2.rar
http://sdilej.cz/7877192/Gon_/SCGylB08016102lC.part3.rar
http://sdilej.cz/7877197/6MI5/SCGylB08016102lC.part4.rar
http://sdilej.cz/7877198/ve9_/SCGylB08016102lC.part5.rar


Upload 3% na opravu dat

no pass
Návrat hore Goto down
Zobrazit informácie o autorovi
 
Criminal / Criminal (2016)
Návrat hore 
Strana 1 z 1

Povolenie tohoto fóra:Nemôžete odpovedať na témy v tomto fóre.
Best Forum :: Filmy Download :: Bez dabingu-
Prejdi na: