Best Forum
 
DomovGalleryRegistráciaPrihlásenie

Share
 

 Warcraft / Warcraft: První střet (2016)

Goto down 
AutorSpráva
Jack86
Pokročilý
Pokročilý


Počet príspevkov : 133
Registration date : 10.02.2010

Warcraft / Warcraft: První střet (2016) Empty
OdoslaťPredmet: Warcraft / Warcraft: První střet (2016)   Warcraft / Warcraft: První střet (2016) Icon_minitime1Ut jún 14, 2016 9:48 am

Warcraft / Warcraft: První střet (2016) Nktrqp6l4ydk


kód:

http://www.csfd.cz/film/233328-warcraft-prvni-stret/prehled/
http://www.imdb.com/title/tt0803096/combined


[size=140]Warcraft 2016 1080p HDTC KORSUB x264 AC3 5.1 TiTAN CZ/EN + titulky[/size]


Audio: EN / CZ
Titulky: CZ


kód:
Warcraft 2016 1080p HDTC KORSUB x264 AC3 5.1 TiTAN
Format                      : Matroska
Format version              : Version 4 / Version 2
File size                  : 4.15 GiB
Duration                    : 2h 3mn
Overall bit rate mode      : Variable
Overall bit rate            : 4 794 Kbps
Encoded date                : UTC 2016-06-13 23:08:14
Writing application        : mkvmerge v9.2.0 ('Photograph') 64bit
Writing library            : libebml v1.3.3 + libmatroska v1.4.4

Video
ID                          : 1
Format                      : AVC
Format/Info                : Advanced Video Codec
Format profile              : High@L4.1
Format settings, CABAC      : Yes
Format settings, ReFrames  : 3 frames
Codec ID                    : V_MPEG4/ISO/AVC
Duration                    : 2h 3mn
Bit rate mode              : Variable
Bit rate                    : 4 166 Kbps
Maximum bit rate            : 40.0 Mbps
Width                      : 1 912 pixels
Height                      : 784 pixels
Display aspect ratio        : 2.40:1
Frame rate mode            : Constant
Frame rate                  : 29.970 (30000/1001) fps
Color space                : YUV
Chroma subsampling          : 4:2:0
Bit depth                  : 8 bits
Scan type                  : Progressive
Bits/(Pixel*Frame)          : 0.093
Stream size                : 3.60 GiB (87%)
Writing library            : x264 core 148 r2638 7599210
Encoding settings          : cabac=1 / ref=4 / deblock=1:-1:-1 / analyse=0x3:0x133 / me=umh / subme=10 / psy=1 / psy_rd=1.00:0.15 / mixed_ref=1 / me_range=24 / chroma_me=1 / trellis=2 / 8x8dct=1 / cqm=0 / deadzone=21,11 / fast_pskip=1 / chroma_qp_offset=-3 / threads=12 / lookahead_threads=1 / sliced_threads=0 / slices=4 / nr=0 / decimate=1 / interlaced=0 / bluray_compat=0 / constrained_intra=0 / bframes=3 / b_pyramid=1 / b_adapt=2 / b_bias=0 / direct=3 / weightb=1 / open_gop=0 / weightp=0 / keyint=29 / keyint_min=2 / scenecut=40 / intra_refresh=0 / rc_lookahead=29 / rc=crf / mbtree=1 / crf=24.5 / qcomp=0.60 / qpmin=10 / qpmax=51 / qpstep=4 / vbv_maxrate=40000 / vbv_bufsize=30000 / crf_max=0.0 / nal_hrd=vbr / filler=0 / ip_ratio=1.40 / aq=1:1.00
Default                    : Yes
Forced                      : No
Color range                : Full
Color primaries            : BT.709
Transfer characteristics    : BT.709
Matrix coefficients        : BT.709

Audio #1
ID                          : 2
Format                      : AC-3
Format/Info                : Audio Coding 3
Mode extension              : CM (complete main)
Format settings, Endianness : Big
Codec ID                    : A_AC3
Duration                    : 2h 3mn
Bit rate mode              : Constant
Bit rate                    : 448 Kbps
Channel(s)                  : 6 channels
Channel positions          : Front: L C R, Side: L R, LFE
Sampling rate              : 48.0 KHz
Frame rate                  : 31.250 fps (1536 spf)
Compression mode            : Lossy
Stream size                : 397 MiB (9%)
Language                    : English
Default                    : Yes
Forced                      : No

Audio #2
ID                          : 3
Format                      : AC-3
Format/Info                : Audio Coding 3
Codec ID                    : A_AC3
Duration                    : 1h 54mn
Bit rate                    : 192 Kbps
Channel(s)                  : 2 channels
Sampling rate              : 44.1 KHz
Frame rate                  : 28.711 fps (1536 spf)
Compression mode            : Lossy
Stream size                : 158 MiB (4%)
Language                    : Czech
Default                    : No
Forced                      : No

kód:

http://www.fastshare.cz/6079514/warcraft-2016-1080p-hdtc-korsub-x264-ac3-5.1-titan-cz-en.mkv
http://www.fastshare.cz/6079515/warcraft-2016-1080p-hdtc-korsub-x264-ac3-5.1-titan-cz-en.srt

kód:

http://file-share.top/file/212689/warcraft-2016-1080p-hdtc-korsub-x264-ac3-5-1-titan-cz-en-mkv
http://file-share.top/file/212690/warcraft-2016-1080p-hdtc-korsub-x264-ac3-5-1-titan-cz-en-srt

kód:

http://www.fastshare.cz/6079464/ectskth0861w.rar

kód:

http://file-share.top/file/212678/ectskth0861w-rar

kód:

http://www.fastshare.cz/6079389/ectskth0861w.part1.rar
http://www.fastshare.cz/6079403/ectskth0861w.part2.rar
http://www.fastshare.cz/6079404/ectskth0861w.part3.rar

kód:

http://file-share.top/file/212668/ectskth0861w-part1-rar
http://file-share.top/file/212670/ectskth0861w-part2-rar
http://file-share.top/file/212671/ectskth0861w-part3-rar


Upload 3% na opravu dat

no pass
Návrat hore Goto down
Zobrazit informácie o autorovi
 
Warcraft / Warcraft: První střet (2016)
Návrat hore 
Strana 1 z 1

Povolenie tohoto fóra:Nemôžete odpovedať na témy v tomto fóre.
Best Forum :: Filmy Download :: SK/CZ dabing-
Prejdi na: