Best Forum
 
DomovGalleryRegistráciaPrihlásenie

Share
 

 Halo 4: Forward Unto Dawn (2012)

Goto down 
AutorSpráva
Jack86
Pokročilý
Pokročilý


Počet príspevkov : 133
Registration date : 10.02.2010

Halo 4: Forward Unto Dawn (2012) Empty
OdoslaťPredmet: Halo 4: Forward Unto Dawn (2012)   Halo 4: Forward Unto Dawn (2012) Icon_minitime1St december 05, 2012 9:28 pm

Halo 4: Forward Unto Dawn (2012) Qsrd7mfhku8d

Sci-Fi / Akční / Thriller
USA, 2012, 5x15 min (Director's cut: 91 min)

Režie: Stewart Hendler
Hrají: Daniel Cudmore, Kat de Lieva, Mike Dopud


Halo 4: Forward Unto Dawn (2012) Csfdlrzuz
Halo 4: Forward Unto Dawn (2012) 8b7hupwxuf11

Doprovodný hraný internetový miniseriál k chystané hře Halo 4 od firmy Microsoft a 343 Industries z dob lidsko-covenantské války a mladého kadeta výcvikové akademie, který se díky inspiraci Materem Chiefem chce stát kapitánem největší lidské vesmírné lodi UNSC Infinity. Tato minisérie vypráví příběh vedoucí k událostem v Halo 4, největším herním zážitku roku 2012


[size=140]halo.4.forward.unto.dawn.2012.720p.bluray.x264-geckos[/size]

kód:
halo.4.forward.unto.dawn.2012.720p.bluray.x264-geckos
Format                                  : Matroska
Format version                          : Version 2
File size                                : 4.37 GiB
Duration                                : 1h 31mn
Overall bit rate                        : 6 844 Kbps
Encoded date                            : UTC 2012-12-03 22:18:31
Writing application                      : mkvmerge v5.8.0 ('No Sleep / Pillow') built on Sep  2 2012 15:37:04
Writing library                          : libebml v1.2.3 + libmatroska v1.3.0

Video
ID                                      : 1
Format                                  : AVC
Format/Info                              : Advanced Video Codec
Format profile                          : High@L4.1
Format settings, CABAC                  : Yes
Format settings, ReFrames                : 5 frames
Codec ID                                : V_MPEG4/ISO/AVC
Duration                                : 1h 31mn
Bit rate                                : 5 333 Kbps
Width                                    : 1 280 pixels
Height                                  : 536 pixels
Display aspect ratio                    : 2.40:1
Frame rate mode                          : Constant
Frame rate                              : 23.976 fps
Color space                              : YUV
Chroma subsampling                      : 4:2:0
Bit depth                                : 8 bits
Scan type                                : Progressive
Bits/(Pixel*Frame)                      : 0.324
Stream size                              : 3.32 GiB (76%)
Writing library                          : x264 core 129 r2230 1cffe9f
Encoding settings                        : cabac=1 / ref=5 / deblock=1:0:0 / analyse=0x3:0x133 / me=umh / subme=7 / psy=1 / psy_rd=1.00:0.00 / mixed_ref=1 / me_range=16 / chroma_me=1 / trellis=1 / 8x8dct=1 / cqm=0 / deadzone=21,11 / fast_pskip=0 / chroma_qp_offset=-2 / threads=12 / lookahead_threads=2 / sliced_threads=0 / nr=0 / decimate=1 / interlaced=0 / bluray_compat=0 / constrained_intra=0 / bframes=3 / b_pyramid=2 / b_adapt=1 / b_bias=0 / direct=1 / weightb=1 / open_gop=0 / weightp=2 / keyint=250 / keyint_min=23 / scenecut=40 / intra_refresh=0 / rc_lookahead=40 / rc=2pass / mbtree=1 / bitrate=5333 / ratetol=1.0 / qcomp=0.60 / qpmin=0 / qpmax=69 / qpstep=4 / cplxblur=20.0 / qblur=0.5 / ip_ratio=1.40 / aq=1:1.00
Language                                : English
Default                                  : Yes
Forced                                  : No

Audio
ID                                      : 2
Format                                  : DTS
Format/Info                              : Digital Theater Systems
Mode                                    : 16
Format settings, Endianness              : Big
Codec ID                                : A_DTS
Duration                                : 1h 31mn
Bit rate mode                            : Constant
Bit rate                                : 1 509 Kbps
Channel(s)                              : 6 channels
Channel positions                        : Front: L C R, Side: L R, LFE
Sampling rate                            : 48.0 KHz
Bit depth                                : 24 bits
Compression mode                        : Lossy
Stream size                              : 986 MiB (22%)
Language                                : English
Default                                  : Yes
Forced                                  : No

Text #1
ID                                      : 3
Format                                  : UTF-8
Codec ID                                : S_TEXT/UTF8
Codec ID/Info                            : UTF-8 Plain Text
Language                                : English
Default                                  : No
Forced                                  : No

Text #2
ID                                      : 4
Format                                  : UTF-8
Codec ID                                : S_TEXT/UTF8
Codec ID/Info                            : UTF-8 Plain Text
Language                                : Czech
Default                                  : Yes
Forced                                  : No

Menu
00:00:00.000                            : en:00:00:00.000
00:04:14.546                            : en:00:04:14.546
00:07:44.464                            : en:00:07:44.464
00:08:31.928                            : en:00:08:31.928
00:12:39.968                            : en:00:12:39.968
00:16:24.692                            : en:00:16:24.692
00:20:13.212                            : en:00:20:13.212
00:25:52.968                            : en:00:25:52.968
00:28:22.200                            : en:00:28:22.200
00:31:57.207                            : en:00:31:57.207
00:36:17.842                            : en:00:36:17.842
00:40:53.868                            : en:00:40:53.868
00:44:32.461                            : en:00:44:32.461
00:46:29.495                            : en:00:46:29.495
00:49:45.441                            : en:00:49:45.441
00:53:58.402                            : en:00:53:58.402
00:57:03.086                            : en:00:57:03.086
01:03:23.133                            : en:01:03:23.133
01:08:56.257                            : en:01:08:56.257
01:12:07.156                            : en:01:12:07.156
01:18:15.357                            : en:01:18:15.357
01:24:02.079                            : en:01:24:02.079

Sample
kód:

http://sharerapid.biz/stahuj/3969518/hl-4-frad-ut-dw-2012-20-en.mkv?dealer_id=29875
http://euroshare.eu/file/15565917/hl.4.frad.ut.dw.2012.20.en.mkv
http://czshare.com/4207534/hl.4.frad.ut.dw.2012.20.en.mkv
http://www.fastshare.cz/1833342/hl.4.frad.ut.dw.2012.20.en.mkv
http://download.hellshare.com/hl-4-frad-ut-dw-2012-20-en-mkv/10282444/

5x900 MB / 1x111.15 MB
kód:

http://sharerapid.biz/stahuj/3969415/hl-4-frad-ut-dw-2012-20-en-part1.rar?dealer_id=29875
http://sharerapid.biz/stahuj/3969422/hl-4-frad-ut-dw-2012-20-en-part3.rar?dealer_id=29875
http://sharerapid.biz/stahuj/3969425/hl-4-frad-ut-dw-2012-20-en-part4.rar?dealer_id=29875
http://sharerapid.biz/stahuj/3969429/hl-4-frad-ut-dw-2012-20-en-part5.rar?dealer_id=29875
http://sharerapid.biz/stahuj/3969430/hl-4-frad-ut-dw-2012-20-en-part6.rar?dealer_id=29875
http://sharerapid.biz/stahuj/3969521/hl-4-frad-ut-dw-2012-20-en-part2.rar?dealer_id=29875

kód:

http://euroshare.eu/file/15565918/hl.4.frad.ut.dw.2012.20.en.part1.rar
http://euroshare.eu/file/15565921/hl.4.frad.ut.dw.2012.20.en.part2.rar
http://euroshare.eu/file/15565922/hl.4.frad.ut.dw.2012.20.en.part3.rar
http://euroshare.eu/file/15565923/hl.4.frad.ut.dw.2012.20.en.part4.rar
http://euroshare.eu/file/15565925/hl.4.frad.ut.dw.2012.20.en.part5.rar
http://euroshare.eu/file/15565926/hl.4.frad.ut.dw.2012.20.en.part6.rar

kód:

http://www.fastshare.cz/1832145/hl.4.frad.ut.dw.2012.20.en.part2.rar
http://www.fastshare.cz/1832146/hl.4.frad.ut.dw.2012.20.en.part1.rar
http://www.fastshare.cz/1832156/hl.4.frad.ut.dw.2012.20.en.part3.rar
http://www.fastshare.cz/1832160/hl.4.frad.ut.dw.2012.20.en.part4.rar
http://www.fastshare.cz/1832173/hl.4.frad.ut.dw.2012.20.en.part5.rar
http://www.fastshare.cz/1832176/hl.4.frad.ut.dw.2012.20.en.part6.rar

kód:

http://download.hellshare.com/hl-4-frad-ut-dw-2012-20-en-part1-rar/10277905/
http://download.hellshare.com/hl-4-frad-ut-dw-2012-20-en-part2-rar/10277943/
http://download.hellshare.com/hl-4-frad-ut-dw-2012-20-en-part3-rar/10278324/
http://download.hellshare.com/hl-4-frad-ut-dw-2012-20-en-part4-rar/10278372/
http://download.hellshare.com/hl-4-frad-ut-dw-2012-20-en-part5-rar/10278399/
http://download.hellshare.com/hl-4-frad-ut-dw-2012-20-en-part6-rar/10278407/

kód:

http://czshare.com/4203630/hl.4.frad.ut.dw.2012.20.en.part1.rar
http://czshare.com/4203663/hl.4.frad.ut.dw.2012.20.en.part2.rar
http://czshare.com/4203714/hl.4.frad.ut.dw.2012.20.en.part4.rar
http://czshare.com/4203787/hl.4.frad.ut.dw.2012.20.en.part5.rar
http://czshare.com/4203793/hl.4.frad.ut.dw.2012.20.en.part6.rar
http://czshare.com/4205853/hl.4.frad.ut.dw.2012.20.en.part3.rar




Upload 3% na oprawu dat

no pass
Návrat hore Goto down
Zobrazit informácie o autorovi
 
Halo 4: Forward Unto Dawn (2012)
Návrat hore 
Strana 1 z 1

Povolenie tohoto fóra:Nemôžete odpovedať na témy v tomto fóre.
Best Forum :: Filmy Download :: HD-
Prejdi na: