Best Forum
 
DomovGalleryRegistráciaPrihlásenie

Share
 

 Bourne Legacy, The / Bourneův odkaz (2012)

Goto down 
AutorSpráva
Jack86
Pokročilý
Pokročilý


Počet príspevkov : 133
Registration date : 10.02.2010

Bourne Legacy, The / Bourneův odkaz (2012) Empty
OdoslaťPredmet: Bourne Legacy, The / Bourneův odkaz (2012)   Bourne Legacy, The / Bourneův odkaz (2012) Icon_minitime1So december 01, 2012 12:15 pm

Bourne Legacy, The / Bourneův odkaz (2012) Gabhp

Akční / Dobrodružný / Thriller / Mysteriózní
USA, 2012, 134 min

Režie: Tony Gilroy
Hudba: James Newton Howard
Hrají: Jeremy Renner, Edward Norton, Rachel Weisz, Oscar Isaac, Joan Allen, Albert Finney, Stacy Keach, Scott Glenn, Corey Stoll, Michael Papajohn, Dennis Boutsikaris, Željko Ivanek, Michael Chernus, Donna Murphy, David Strathairn, Corey Johnson, Joel Torre, Louis Ozawa Changchien


Bourne Legacy, The / Bourneův odkaz (2012) Csfdlrzuz

V Bourneovu ultimátu agent Jason Bourne zlikvidoval tajný a kontroverzní vládní program společně s jeho tvůrci. Šlo však jen o špičku ledovce, pod níž se ukrývá mnohem sofistikovanější systém tajných operací, kterému šéfuje Byer (Edward Norton). Chladnokrevného profíka události kolem Jasona Bournea rozhodně nenechávají chladným, a tak se pro jistotu rozhodne bezpečně pohřbít podobný program dřív, než mu taky přeroste přes hlavu. K jeho smůle však jinak precizní čistící operaci přežije právě Aaron Cross a také vědkyně Marta Shearing (Rachel Weisz), která m…


[size=140]The.Bourne.Legacy.2012.720p.BluRay.x264-SPARKS[/size]

kód:
The.Bourne.Legacy.2012.720p.BluRay.x264-SPARKS
Format                                  : Matroska
Format version                          : Version 2
File size                                : 5.46 GiB
Duration                                : 2h 15mn
Overall bit rate                        : 5 785 Kbps
Encoded date                            : UTC 2012-11-30 06:11:11
Writing application                      : mkvmerge v5.8.0 ('No Sleep / Pillow') built on Sep  2 2012 15:37:04
Writing library                          : libebml v1.2.3 + libmatroska v1.3.0

Video
ID                                      : 1
Format                                  : AVC
Format/Info                              : Advanced Video Codec
Format profile                          : High@L4.1
Format settings, CABAC                  : Yes
Format settings, ReFrames                : 5 frames
Codec ID                                : V_MPEG4/ISO/AVC
Duration                                : 2h 15mn
Bit rate                                : 4 283 Kbps
Width                                    : 1 280 pixels
Height                                  : 536 pixels
Display aspect ratio                    : 2.40:1
Frame rate mode                          : Constant
Frame rate                              : 23.976 fps
Color space                              : YUV
Chroma subsampling                      : 4:2:0
Bit depth                                : 8 bits
Scan type                                : Progressive
Bits/(Pixel*Frame)                      : 0.260
Stream size                              : 3.92 GiB (72%)
Writing library                          : x264 core 129 r2230 1cffe9f
Encoding settings                        : cabac=1 / ref=5 / deblock=1:0:0 / analyse=0x3:0x133 / me=umh / subme=7 / psy=1 / psy_rd=1.00:0.00 / mixed_ref=1 / me_range=16 / chroma_me=1 / trellis=1 / 8x8dct=1 / cqm=0 / deadzone=21,11 / fast_pskip=0 / chroma_qp_offset=-2 / threads=12 / lookahead_threads=2 / sliced_threads=0 / nr=0 / decimate=1 / interlaced=0 / bluray_compat=0 / constrained_intra=0 / bframes=3 / b_pyramid=2 / b_adapt=1 / b_bias=0 / direct=1 / weightb=1 / open_gop=0 / weightp=2 / keyint=250 / keyint_min=23 / scenecut=40 / intra_refresh=0 / rc_lookahead=40 / rc=2pass / mbtree=1 / bitrate=4283 / ratetol=1.0 / qcomp=0.60 / qpmin=0 / qpmax=69 / qpstep=4 / cplxblur=20.0 / qblur=0.5 / ip_ratio=1.40 / aq=1:1.00
Language                                : English
Default                                  : Yes
Forced                                  : No

Audio
ID                                      : 2
Format                                  : DTS
Format/Info                              : Digital Theater Systems
Mode                                    : 16
Format settings, Endianness              : Big
Codec ID                                : A_DTS
Duration                                : 2h 15mn
Bit rate mode                            : Constant
Bit rate                                : 1 509 Kbps
Channel(s)                              : 6 channels
Channel positions                        : Front: L C R, Side: L R, LFE
Sampling rate                            : 48.0 KHz
Bit depth                                : 24 bits
Compression mode                        : Lossy
Stream size                              : 1.42 GiB (26%)
Language                                : English
Default                                  : Yes
Forced                                  : No

Text #1
ID                                      : 3
Format                                  : UTF-8
Codec ID                                : S_TEXT/UTF8
Codec ID/Info                            : UTF-8 Plain Text
Language                                : English
Default                                  : No
Forced                                  : No

Text #2
ID                                      : 4
Format                                  : UTF-8
Codec ID                                : S_TEXT/UTF8
Codec ID/Info                            : UTF-8 Plain Text
Language                                : Czech
Default                                  : Yes
Forced                                  : No

Menu
00:00:00.000                            : en:00:00:00.000
00:08:43.690                            : en:00:08:43.690
00:14:26.616                            : en:00:14:26.616
00:19:57.488                            : en:00:19:57.488
00:27:53.297                            : en:00:27:53.297
00:34:18.265                            : en:00:34:18.265
00:42:52.403                            : en:00:42:52.403
00:47:57.374                            : en:00:47:57.374
00:53:56.066                            : en:00:53:56.066
01:00:29.167                            : en:01:00:29.167
01:07:36.636                            : en:01:07:36.636
01:14:36.972                            : en:01:14:36.972
01:22:39.204                            : en:01:22:39.204
01:28:37.687                            : en:01:28:37.687
01:36:39.043                            : en:01:36:39.043
01:41:05.685                            : en:01:41:05.685
01:45:07.968                            : en:01:45:07.968
01:52:15.520                            : en:01:52:15.520
02:00:07.283                            : en:02:00:07.283
02:05:06.416                            : en:02:05:06.416

Sample
kód:

http://sharerapid.biz/stahuj/3964293/bun-lgc-2012-20p-en.mkv?dealer_id=29875
http://euroshare.eu/file/15565409/bun.lgc.2012.20p.en.mkv
http://www.fastshare.cz/1826745/bun.lgc.2012.20p.en.mkv
http://czshare.com/4174272/Bun.Lgc.2012.20p.en.mkv
http://download.hellshare.com/bun-lgc-2012-20p-en-mkv/10226135/

6x900 MB / 1x359.09 MB
kód:

http://sharerapid.biz/stahuj/3964095/bun-lgc-2012-20p-en-part1.rar?dealer_id=29875
http://sharerapid.biz/stahuj/3964103/bun-lgc-2012-20p-en-part3.rar?dealer_id=29875
http://sharerapid.biz/stahuj/3964111/bun-lgc-2012-20p-en-part4.rar?dealer_id=29875
http://sharerapid.biz/stahuj/3964121/bun-lgc-2012-20p-en-part5.rar?dealer_id=29875
http://sharerapid.biz/stahuj/3964131/bun-lgc-2012-20p-en-part6.rar?dealer_id=29875
http://sharerapid.biz/stahuj/3964289/bun-lgc-2012-20p-en-part2.rar?dealer_id=29875
http://sharerapid.biz/stahuj/3964291/bun-lgc-2012-20p-en-part7.rar?dealer_id=29875

kód:

http://euroshare.eu/file/15565410/bun.lgc.2012.20p.en.part1.rar
http://euroshare.eu/file/15565411/bun.lgc.2012.20p.en.part2.rar
http://euroshare.eu/file/15565412/bun.lgc.2012.20p.en.part3.rar
http://euroshare.eu/file/15565414/bun.lgc.2012.20p.en.part4.rar
http://euroshare.eu/file/15565415/bun.lgc.2012.20p.en.part5.rar
http://euroshare.eu/file/15565417/bun.lgc.2012.20p.en.part6.rar
http://euroshare.eu/file/15565419/bun.lgc.2012.20p.en.part7.rar

kód:

http://www.fastshare.cz/1825799/bun.lgc.2012.20p.en.part1.rar
http://www.fastshare.cz/1825802/bun.lgc.2012.20p.en.part2.rar
http://www.fastshare.cz/1825812/bun.lgc.2012.20p.en.part3.rar
http://www.fastshare.cz/1825820/bun.lgc.2012.20p.en.part4.rar
http://www.fastshare.cz/1825825/bun.lgc.2012.20p.en.part5.rar
http://www.fastshare.cz/1825830/bun.lgc.2012.20p.en.part6.rar
http://www.fastshare.cz/1825833/bun.lgc.2012.20p.en.part7.rar

kód:

http://download.hellshare.com/bun-lgc-2012-20p-en-part2-rar/10204383/
http://download.hellshare.com/bun-lgc-2012-20p-en-part1-rar/10204431/
http://download.hellshare.com/bun-lgc-2012-20p-en-part3-rar/10204476/
http://download.hellshare.com/bun-lgc-2012-20p-en-part4-rar/10204514/
http://download.hellshare.com/bun-lgc-2012-20p-en-part5-rar/10204558/
http://download.hellshare.com/bun-lgc-2012-20p-en-part6-rar/10204590/
http://download.hellshare.com/bun-lgc-2012-20p-en-part7-rar/10204617/

kód:

http://czshare.com/4172558/Bun.Lgc.2012.20p.en.part3.rar
http://czshare.com/4172588/Bun.Lgc.2012.20p.en.part4.rar
http://czshare.com/4172602/Bun.Lgc.2012.20p.en.part5.rar
http://czshare.com/4172623/Bun.Lgc.2012.20p.en.part1.rar
http://czshare.com/4172652/Bun.Lgc.2012.20p.en.part6.rar
http://czshare.com/4172656/Bun.Lgc.2012.20p.en.part7.rar
http://czshare.com/4174257/Bun.Lgc.2012.20p.en.part2.rar



Upload 3% na oprawu dat

no pass
Návrat hore Goto down
Zobrazit informácie o autorovi
 
Bourne Legacy, The / Bourneův odkaz (2012)
Návrat hore 
Strana 1 z 1

Povolenie tohoto fóra:Nemôžete odpovedať na témy v tomto fóre.
Best Forum :: Filmy Download :: HD-
Prejdi na: