Best Forum
 
DomovGalleryRegistráciaPrihlásenie

Share
 

 Divide, The / 2011

Goto down 
AutorSpráva
Jack86
Pokročilý
Pokročilý


Počet príspevkov : 133
Registration date : 10.02.2010

Divide, The / 2011 Empty
OdoslaťPredmet: Divide, The / 2011   Divide, The / 2011 Icon_minitime1Št október 11, 2012 1:11 am

Divide, The / 2011 Thedivide

Sci-Fi / Thriller / Horor / Psychologický
Německo / USA / Kanada, 2011, 122 min

Režie: Xavier Gens
Hudba: Jean-Pierre Taieb
Hrají: Lauren German, Michael Biehn, Ashton Holmes, Rosanna Arquette, Courtney B. Vance, Milo Ventimiglia, Michael Eklund, Iván González, Jennifer Blanc


Divide, The / 2011 Csfdlrzuz

New York City, obyčejný den. Ovšem jen do chvíle, kdy je celé město paralyzováno nekonečnou sérií výbuchů. Skupinka několika rozdílných lidí nachází útočiště v suterénu obytného domu, kde byl (zásluhou paranoidního správce) vybudován provizorní protiatomový kryt. Jídla a vody je dostatek, strach, naprostá absence informací a sílící ponorková nemoc si však začínají vybírat svou daň a z bezpečného útočiště se tak velmi brzy stává klaustrofobická past. A venku zatím vyčkává "zlo", které předčí i ty nejhorší představy. Dokážou se naši hrdinové spojit proti sp…

[size=140]The.Divide.2011.LIMITED.720p.BluRay.x264-SPARKS[/size]

kód:
The.Divide.2011.LIMITED.720p.BluRay.x264-SPARKS
Format                                  : Matroska
Format version                          : Version 2
File size                                : 4.37 GiB
Duration                                : 2h 2mn
Overall bit rate                        : 5 116 Kbps
Encoded date                            : UTC 2012-03-31 16:01:01
Writing application                      : mkvmerge v5.4.0 ('Piper') built on Mar 10 2012 13:34:39
Writing library                          : libebml v1.2.3 + libmatroska v1.3.0

Video
ID                                      : 1
Format                                  : AVC
Format/Info                              : Advanced Video Codec
Format profile                          : High@L4.1
Format settings, CABAC                  : Yes
Format settings, ReFrames                : 5 frames
Codec ID                                : V_MPEG4/ISO/AVC
Duration                                : 2h 2mn
Bit rate                                : 4 478 Kbps
Width                                    : 1 280 pixels
Height                                  : 544 pixels
Display aspect ratio                    : 2.35:1
Frame rate                              : 23.976 fps
Color space                              : YUV
Chroma subsampling                      : 4:2:0
Bit depth                                : 8 bits
Scan type                                : Progressive
Bits/(Pixel*Frame)                      : 0.268
Stream size                              : 3.74 GiB (86%)
Writing library                          : x264 core 122 r2184 5c85e0a
Encoding settings                        : cabac=1 / ref=5 / deblock=1:0:0 / analyse=0x3:0x133 / me=umh / subme=7 / psy=1 / psy_rd=1.00:0.00 / mixed_ref=1 / me_range=16 / chroma_me=1 / trellis=1 / 8x8dct=1 / cqm=0 / deadzone=21,11 / fast_pskip=0 / chroma_qp_offset=-2 / threads=12 / sliced_threads=0 / nr=0 / decimate=1 / interlaced=0 / bluray_compat=0 / constrained_intra=0 / bframes=3 / b_pyramid=2 / b_adapt=1 / b_bias=0 / direct=1 / weightb=1 / open_gop=0 / weightp=2 / keyint=250 / keyint_min=23 / scenecut=40 / intra_refresh=0 / rc_lookahead=40 / rc=2pass / mbtree=1 / bitrate=4478 / ratetol=1.0 / qcomp=0.60 / qpmin=0 / qpmax=69 / qpstep=4 / cplxblur=20.0 / qblur=0.5 / ip_ratio=1.40 / aq=1:1.00
Language                                : English
Default                                  : Yes
Forced                                  : No

Audio
ID                                      : 2
Format                                  : AC-3
Format/Info                              : Audio Coding 3
Mode extension                          : CM (complete main)
Codec ID                                : A_AC3
Duration                                : 2h 2mn
Bit rate mode                            : Constant
Bit rate                                : 640 Kbps
Channel(s)                              : 6 channels
Channel positions                        : Front: L C R, Side: L R, LFE
Sampling rate                            : 48.0 KHz
Bit depth                                : 16 bits
Compression mode                        : Lossy
Stream size                              : 560 MiB (13%)
Language                                : English
Default                                  : Yes
Forced                                  : No

Text #1
ID                                      : 3
Format                                  : UTF-8
Codec ID                                : S_TEXT/UTF8
Codec ID/Info                            : UTF-8 Plain Text
Language                                : English
Default                                  : No
Forced                                  : No

Text #2
ID                                      : 4
Format                                  : UTF-8
Codec ID                                : S_TEXT/UTF8
Codec ID/Info                            : UTF-8 Plain Text
Language                                : Czech
Default                                  : Yes
Forced                                  : No

Menu
00:00:00.000                            : en:00:00:00.000
00:04:04.327                            : en:00:04:04.327
00:15:55.580                            : en:00:15:55.580
00:27:22.599                            : en:00:27:22.599
00:39:36.624                            : en:00:39:36.624
00:50:05.002                            : en:00:50:05.002
01:02:02.719                            : en:01:02:02.719
01:09:37.090                            : en:01:09:37.090
01:22:29.403                            : en:01:22:29.403
01:34:27.996                            : en:01:34:27.996
01:48:33.298                            : en:01:48:33.298
01:58:58.089                            : en:01:58:58.089

Sample
kód:

http://sharerapid.biz/stahuj/3881156/te-dvd-2011-lmtd-720p-eng.mkv?dealer_id=29875
http://czshare.com/3672357/Te.Dvd.2011.LMTD.720p.Eng.mkv
http://euroshare.eu/file/15545886/te.dvd.2011.lmtd.720p.eng.mkv
http://www.fastshare.cz/1700290/te.dvd.2011.lmtd.720p.eng.mkv
http://download.hellshare.com/te-dvd-2011-lmtd-720p-eng-mkv/9320537/

5x900 MB / 1x110.71 MB
kód:

http://sharerapid.biz/stahuj/3570228/t-h-e-d-i-v-i-d-e-2011-720p-eng-part1.rar?dealer_id=29875
http://sharerapid.biz/stahuj/3570241/t-h-e-d-i-v-i-d-e-2011-720p-eng-part2.rar?dealer_id=29875
http://sharerapid.biz/stahuj/3570256/t-h-e-d-i-v-i-d-e-2011-720p-eng-part3.rar?dealer_id=29875
http://sharerapid.biz/stahuj/3570265/t-h-e-d-i-v-i-d-e-2011-720p-eng-part4.rar?dealer_id=29875
http://sharerapid.biz/stahuj/3570273/t-h-e-d-i-v-i-d-e-2011-720p-eng-part5.rar?dealer_id=29875
http://sharerapid.biz/stahuj/3570275/t-h-e-d-i-v-i-d-e-2011-720p-eng-part6.rar?dealer_id=29875

OR

kód:

http://sharerapid.biz/stahuj/3881135/te-dvd-2011-lmtd-720p-eng-part1.rar?dealer_id=29875
http://sharerapid.biz/stahuj/3881141/te-dvd-2011-lmtd-720p-eng-part2.rar?dealer_id=29875
http://sharerapid.biz/stahuj/3881145/te-dvd-2011-lmtd-720p-eng-part3.rar?dealer_id=29875
http://sharerapid.biz/stahuj/3881150/te-dvd-2011-lmtd-720p-eng-part4.rar?dealer_id=29875
http://sharerapid.biz/stahuj/3881154/te-dvd-2011-lmtd-720p-eng-part5.rar?dealer_id=29875
http://sharerapid.biz/stahuj/3881155/te-dvd-2011-lmtd-720p-eng-part6.rar?dealer_id=29875

kód:

http://euroshare.eu/file/15545863/te.dvd.2011.lmtd.720p.eng.part2.rar
http://euroshare.eu/file/15545864/te.dvd.2011.lmtd.720p.eng.part1.rar
http://euroshare.eu/file/15545867/te.dvd.2011.lmtd.720p.eng.part3.rar
http://euroshare.eu/file/15545868/te.dvd.2011.lmtd.720p.eng.part4.rar
http://euroshare.eu/file/15545869/te.dvd.2011.lmtd.720p.eng.part6.rar
http://euroshare.eu/file/15545870/te.dvd.2011.lmtd.720p.eng.part5.rar

kód:

http://www.fastshare.cz/1700158/te.dvd.2011.lmtd.720p.eng.part1.rar
http://www.fastshare.cz/1700168/te.dvd.2011.lmtd.720p.eng.part2.rar
http://www.fastshare.cz/1700170/te.dvd.2011.lmtd.720p.eng.part3.rar
http://www.fastshare.cz/1700172/te.dvd.2011.lmtd.720p.eng.part4.rar
http://www.fastshare.cz/1700218/te.dvd.2011.lmtd.720p.eng.part6.rar
http://www.fastshare.cz/1700235/te.dvd.2011.lmtd.720p.eng.part5.rar

kód:

http://download.hellshare.com/te-dvd-2011-lmtd-720p-eng-part1-rar/9320151/
http://download.hellshare.com/te-dvd-2011-lmtd-720p-eng-part2-rar/9320204/
http://download.hellshare.com/te-dvd-2011-lmtd-720p-eng-part3-rar/9320208/
http://download.hellshare.com/te-dvd-2011-lmtd-720p-eng-part4-rar/9320264/
http://download.hellshare.com/te-dvd-2011-lmtd-720p-eng-part5-rar/9320265/
http://download.hellshare.com/te-dvd-2011-lmtd-720p-eng-part6-rar/9320270/

kód:

http://czshare.com/3672019/Te.Dvd.2011.LMTD.720p.Eng.part2.rar
http://czshare.com/3672151/Te.Dvd.2011.LMTD.720p.Eng.part3.rar
http://czshare.com/3672165/Te.Dvd.2011.LMTD.720p.Eng.part6.rar
http://czshare.com/3672304/Te.Dvd.2011.LMTD.720p.Eng.part1.rar
http://czshare.com/3672349/Te.Dvd.2011.LMTD.720p.Eng.part5.rar
http://czshare.com/3672559/Te.Dvd.2011.LMTD.720p.Eng.part4.rar


Upload 3% na oprawu dat

no pass
Návrat hore Goto down
Zobrazit informácie o autorovi
 
Divide, The / 2011
Návrat hore 
Strana 1 z 1

Povolenie tohoto fóra:Nemôžete odpovedať na témy v tomto fóre.
Best Forum :: Filmy Download :: HD-
Prejdi na: