Best Forum
 
DomovGalleryRegistráciaPrihlásenie

Share
 

 Darkest Hour, The / Černá hodina / 2011

Goto down 
AutorSpráva
Jack86
Pokročilý
Pokročilý


Počet príspevkov : 133
Registration date : 10.02.2010

Darkest Hour, The / Černá hodina / 2011 Empty
OdoslaťPredmet: Darkest Hour, The / Černá hodina / 2011   Darkest Hour, The / Černá hodina / 2011 Icon_minitime1Pi október 05, 2012 2:53 pm

Darkest Hour, The / Černá hodina / 2011 Ernhodina

Sci-Fi / Akční / Thriller / Horor
USA, 2011, 89 min

Režie: Chris Gorak
Hudba: Tyler Bates
Hrají: Emile Hirsch, Olivia Thirlby, Rachael Taylor, Max Minghella, Joel Kinnaman, Veronika Ozerova, Dato Bachtadze


Darkest Hour, The / Černá hodina / 2011 Csfdlrzuz

Když partička mladých amerických turistů vyrazí do východní Evropy poznávat krásy a krásky ruské metropole, může to skončit jednou velkou nekonečnou party v luxusních moskevských klubech, nebo také zběsilým bojem o vlastní přežití. Nepotkali sice čečenské mafiány či nabroušené příslušníky tajné policie, ale s mimozemšťany taky není žádná legrace. Zvlášť když jsou neviditelní a udělají z člověka popel, než by řekl: „popel“. Město nemůže dlouho vydržet a co teprve vyjukaní turisté, kteří neumějí rusky a v cizí metropoli se nevyznají. Otázkou navíc zůstává,…

[size=140]The.Darkest.Hour.2011.720p.BluRay.X264-AMIABLE[/size]

kód:
The.Darkest.Hour.2011.720p.BluRay.X264-AMIABLE
Format                                  : Matroska
Format version                          : Version 2
File size                                : 4.37 GiB
Duration                                : 1h 28mn
Overall bit rate                        : 7 033 Kbps
Encoded date                            : UTC 2012-03-31 06:21:09
Writing application                      : mkvmerge v5.4.0 ('Piper') built on Mar 10 2012 13:34:39
Writing library                          : libebml v1.2.3 + libmatroska v1.3.0

Video
ID                                      : 1
Format                                  : AVC
Format/Info                              : Advanced Video Codec
Format profile                          : High@L4.1
Format settings, CABAC                  : Yes
Format settings, ReFrames                : 5 frames
Codec ID                                : V_MPEG4/ISO/AVC
Duration                                : 1h 28mn
Bit rate                                : 5 523 Kbps
Width                                    : 1 280 pixels
Height                                  : 536 pixels
Display aspect ratio                    : 2.40:1
Frame rate                              : 23.976 fps
Color space                              : YUV
Chroma subsampling                      : 4:2:0
Bit depth                                : 8 bits
Scan type                                : Progressive
Bits/(Pixel*Frame)                      : 0.336
Stream size                              : 3.35 GiB (77%)
Writing library                          : x264 core 122 r2184 5c85e0a
Encoding settings                        : cabac=1 / ref=5 / deblock=1:0:0 / analyse=0x3:0x113 / me=umh / subme=8 / psy=1 / psy_rd=1.00:0.00 / mixed_ref=1 / me_range=16 / chroma_me=1 / trellis=1 / 8x8dct=1 / cqm=0 / deadzone=21,11 / fast_pskip=1 / chroma_qp_offset=-2 / threads=12 / sliced_threads=0 / nr=0 / decimate=1 / interlaced=0 / bluray_compat=0 / constrained_intra=0 / bframes=3 / b_pyramid=2 / b_adapt=2 / b_bias=0 / direct=3 / weightb=1 / open_gop=0 / weightp=2 / keyint=240 / keyint_min=24 / scenecut=40 / intra_refresh=0 / rc_lookahead=50 / rc=2pass / mbtree=1 / bitrate=5523 / ratetol=1.0 / qcomp=0.60 / qpmin=0 / qpmax=69 / qpstep=4 / cplxblur=20.0 / qblur=0.5 / ip_ratio=1.40 / aq=1:1.00
Language                                : English
Default                                  : Yes
Forced                                  : No

Audio
ID                                      : 2
Format                                  : DTS
Format/Info                              : Digital Theater Systems
Codec ID                                : A_DTS
Duration                                : 1h 28mn
Bit rate mode                            : Constant
Bit rate                                : 1 510 Kbps
Channel(s)                              : 6 channels
Channel positions                        : Front: L C R, Side: L R, LFE
Sampling rate                            : 48.0 KHz
Bit depth                                : 24 bits
Compression mode                        : Lossy
Stream size                              : 961 MiB (21%)
Language                                : English
Default                                  : Yes
Forced                                  : No

Text #1
ID                                      : 3
Format                                  : UTF-8
Codec ID                                : S_TEXT/UTF8
Codec ID/Info                            : UTF-8 Plain Text
Language                                : Czech
Default                                  : Yes
Forced                                  : No

Text #2
ID                                      : 4
Format                                  : UTF-8
Codec ID                                : S_TEXT/UTF8
Codec ID/Info                            : UTF-8 Plain Text
Language                                : Slovak
Default                                  : No
Forced                                  : No

Text #3
ID                                      : 5
Format                                  : UTF-8
Codec ID                                : S_TEXT/UTF8
Codec ID/Info                            : UTF-8 Plain Text
Language                                : English
Default                                  : No
Forced                                  : No

Menu
00:00:00.000                            : en:00:00:00.000
00:04:33.440                            : en:00:04:33.440
00:08:06.277                            : en:00:08:06.277
00:13:27.432                            : en:00:13:27.432
00:19:10.566                            : en:00:19:10.566
00:22:25.970                            : en:00:22:25.970
00:28:52.022                            : en:00:28:52.022
00:32:46.506                            : en:00:32:46.506
00:38:33.478                            : en:00:38:33.478
00:43:33.277                            : en:00:43:33.277
00:47:28.387                            : en:00:47:28.387
00:51:05.354                            : en:00:51:05.354
00:56:38.562                            : en:00:56:38.562
01:03:10.370                            : en:01:03:10.370
01:06:27.775                            : en:01:06:27.775
01:12:04.028                            : en:01:12:04.028
01:18:10.144                            : en:01:18:10.144
01:22:43.292                            : en:01:22:43.292

Sample
kód:

http://sharerapid.biz/stahuj/3841761/te-dret-hu-2011-720p-eng.mkv?dealer_id=29875
http://euroshare.eu/file/15541975/te.dret.hu.2011.720p.eng.mkv
http://www.fastshare.cz/1658961/te.dret.hu.2011.720p.eng.mkv
http://download.hellshare.com/te-dret-hu-2011-720p-eng-mkv/9099004/

5x900 MB / 1x112.99 MB
kód:

http://sharerapid.biz/stahuj/3567134/t-h-e-d-a-r-k-e-s-t-h-o-u-r-2011-720p-eng-part1.rar?dealer_id=29875
http://sharerapid.biz/stahuj/3567141/t-h-e-d-a-r-k-e-s-t-h-o-u-r-2011-720p-eng-part2.rar?dealer_id=29875
http://sharerapid.biz/stahuj/3567146/t-h-e-d-a-r-k-e-s-t-h-o-u-r-2011-720p-eng-part3.rar?dealer_id=29875
http://sharerapid.biz/stahuj/3567152/t-h-e-d-a-r-k-e-s-t-h-o-u-r-2011-720p-eng-part4.rar?dealer_id=29875
http://sharerapid.biz/stahuj/3567161/t-h-e-d-a-r-k-e-s-t-h-o-u-r-2011-720p-eng-part5.rar?dealer_id=29875
http://sharerapid.biz/stahuj/3567164/t-h-e-d-a-r-k-e-s-t-h-o-u-r-2011-720p-eng-part6.rar?dealer_id=29875

OR

kód:

http://sharerapid.biz/stahuj/3841750/te-dret-hu-2011-720p-eng-part1.rar?dealer_id=29875
http://sharerapid.biz/stahuj/3841753/te-dret-hu-2011-720p-eng-part2.rar?dealer_id=29875
http://sharerapid.biz/stahuj/3841755/te-dret-hu-2011-720p-eng-part3.rar?dealer_id=29875
http://sharerapid.biz/stahuj/3841758/te-dret-hu-2011-720p-eng-part4.rar?dealer_id=29875
http://sharerapid.biz/stahuj/3841759/te-dret-hu-2011-720p-eng-part5.rar?dealer_id=29875
http://sharerapid.biz/stahuj/3841760/te-dret-hu-2011-720p-eng-part6.rar?dealer_id=29875

kód:

http://euroshare.eu/file/15540265/te.dret.hu.2011.720p.eng.part1.rar
http://euroshare.eu/file/15540267/te.dret.hu.2011.720p.eng.part2.rar
http://euroshare.eu/file/15540269/te.dret.hu.2011.720p.eng.part3.rar
http://euroshare.eu/file/15540270/te.dret.hu.2011.720p.eng.part4.rar
http://euroshare.eu/file/15540273/te.dret.hu.2011.720p.eng.part5.rar
http://euroshare.eu/file/15540274/te.dret.hu.2011.720p.eng.part6.rar

kód:

http://www.fastshare.cz/1650660/te.dret.hu.2011.720p.eng.part1.rar
http://www.fastshare.cz/1650663/te.dret.hu.2011.720p.eng.part2.rar
http://www.fastshare.cz/1650669/te.dret.hu.2011.720p.eng.part3.rar
http://www.fastshare.cz/1650674/te.dret.hu.2011.720p.eng.part4.rar
http://www.fastshare.cz/1650675/te.dret.hu.2011.720p.eng.part5.rar
http://www.fastshare.cz/1650676/te.dret.hu.2011.720p.eng.part6.rar

kód:

http://download.hellshare.com/te-dret-hu-2011-720p-eng-part1-rar/9008790/
http://download.hellshare.com/te-dret-hu-2011-720p-eng-part2-rar/9008835/
http://download.hellshare.com/te-dret-hu-2011-720p-eng-part3-rar/9008861/
http://download.hellshare.com/te-dret-hu-2011-720p-eng-part4-rar/9008897/
http://download.hellshare.com/te-dret-hu-2011-720p-eng-part5-rar/9008941/
http://download.hellshare.com/te-dret-hu-2011-720p-eng-part6-rar/9008949/

kód:

http://czshare.com/3439389/Te.Dret.Hu.2011.720p.ENG.part4.rar
http://czshare.com/3440532/Te.Dret.Hu.2011.720p.ENG.part2.rar
http://czshare.com/3444648/Te.Dret.Hu.2011.720p.ENG.part1.rar
http://czshare.com/3444835/Te.Dret.Hu.2011.720p.ENG.part3.rar
http://czshare.com/3445428/Te.Dret.Hu.2011.720p.ENG.part5.rar
http://czshare.com/3445491/Te.Dret.Hu.2011.720p.ENG.part6.rar


Upload 3% na oprawu dat

no pass
Návrat hore Goto down
Zobrazit informácie o autorovi
 
Darkest Hour, The / Černá hodina / 2011
Návrat hore 
Strana 1 z 1

Povolenie tohoto fóra:Nemôžete odpovedať na témy v tomto fóre.
Best Forum :: Filmy Download :: HD-
Prejdi na: