Best Forum
 
DomovGalleryRegistráciaPrihlásenie

Share
 

 Muži v naději /2011

Goto down 
AutorSpráva
Jack86
Pokročilý
Pokročilý


Počet príspevkov : 133
Registration date : 10.02.2010

Muži v naději /2011 Empty
OdoslaťPredmet: Muži v naději /2011   Muži v naději /2011 Icon_minitime1Pi september 14, 2012 8:53 pm

Muži v naději /2011 Muivnadji

Komedie
Česko, 2011, 110 min

Režie: Jiří Vejdělek
Hrají: Jiří Macháček, Bolek Polívka, Éva Vica Kerekes, Petra Hřebíčková, Simona Stašová, Lukáš Langmajer, Hynek Čermák, Michal Novotný, Emma Smetana, Ester Kočičková, Eliška Křenková, Ondřej Zach, Filip Antonio, Jitka Čvančarová, Berenika Kohoutová, Václav Jílek, Zuzana Onufráková, Milan Býček, Eva Nosálková, Nastasja Gospičová


Muži v naději /2011 Csfdlrzuz

Může být nevěra základem šťastného manželství? Šarmantní bonviván Rudolf je o tom přesvědčen: „Ženská má mít pocit, že o chlapa musí bojovat, musí se snažit, aby si ho udržela. A hlavně, ženská se nesmí nudit!”
Rudolf s úspěchem uplatňuje svou divokou teorii v každodenní praxi a to s neutuchajícím elánem, který je u čerstvého šedesátníka záviděníhodný. O to víc pak nechápe naivitu svého nesnesitelně korektního zetě Ondřeje, který pro samé svědomité plnění povinností nevnímá, jak nebezpečně se jeho žena Alice začíná nudit. Milující tatínek a kamarádský tch…



[size=140]Muži.v.naději.720p.BRRip.DD.CZ / 5.1[/size]

kód:
Muži.v.naději.720p.BRRip.DD.CZ
Format                                  : AVI
Format/Info                              : Audio Video Interleave
Format profile                          : OpenDML
File size                                : 4.20 GiB
Duration                                : 1h 50mn
Overall bit rate                        : 5 458 Kbps
Writing application                      : VirtualDubMod 1.6.0.0 SURROUND (build 2560/release)
Writing library                          : VirtualDubMod build 2560/release

Video
ID                                      : 0
Format                                  : MPEG-4 Visual
Format settings, BVOP                    : 1
Format settings, QPel                    : No
Format settings, GMC                    : No warppoints
Format settings, Matrix                  : Default (H.263)
Muxing mode                              : Packed bitstream
Codec ID                                : DX50
Codec ID/Hint                            : DivX 5
Duration                                : 1h 50mn
Bit rate                                : 4 808 Kbps
Width                                    : 1 280 pixels
Height                                  : 720 pixels
Display aspect ratio                    : 16:9
Frame rate                              : 25.000 fps
Color space                              : YUV
Chroma subsampling                      : 4:2:0
Bit depth                                : 8 bits
Scan type                                : Progressive
Compression mode                        : Lossy
Bits/(Pixel*Frame)                      : 0.209
Stream size                              : 3.70 GiB (88%)
Writing library                          : DivX 3330

Audio
ID                                      : 1
Format                                  : AC-3
Format/Info                              : Audio Coding 3
Mode extension                          : CM (complete main)
Codec ID                                : 2000
Duration                                : 1h 50mn
Bit rate mode                            : Constant
Bit rate                                : 640 Kbps
Channel(s)                              : 6 channels
Channel positions                        : Front: L C R, Side: L R, LFE
Sampling rate                            : 48.0 KHz
Bit depth                                : 16 bits
Compression mode                        : Lossy
Stream size                              : 505 MiB (12%)
Alignment                                : Split accross interleaves
Interleave, duration                    : 40 ms (1.00 video frame)
Interleave, preload duration            : 500 ms


4x900 MB / 1x834.8 MB
kód:

http://sharerapid.biz/stahuj/3612970/muvna-2011-720p-cz-part4.rar?dealer_id=29875
http://sharerapid.biz/stahuj/3612972/muvna-2011-720p-cz-part2.rar?dealer_id=29875
http://sharerapid.biz/stahuj/3612974/muvna-2011-720p-cz-part3.rar?dealer_id=29875
http://sharerapid.biz/stahuj/3612975/muvna-2011-720p-cz-part1.rar?dealer_id=29875
http://sharerapid.biz/stahuj/3612976/muvna-2011-720p-cz-part5.rar?dealer_id=29875

kód:

http://euroshare.eu/file/15538878/muvna_2011_720p_cz.part1.rar
http://euroshare.eu/file/15538879/muvna_2011_720p_cz.part2.rar
http://euroshare.eu/file/15538881/muvna_2011_720p_cz.part3.rar
http://euroshare.eu/file/15538883/muvna_2011_720p_cz.part4.rar
http://euroshare.eu/file/15538885/muvna_2011_720p_cz.part5.rar

kód:

http://www.fastshare.cz/1641386/muvna-2011-720p-cz.part1.rar
http://www.fastshare.cz/1641390/muvna-2011-720p-cz.part2.rar
http://www.fastshare.cz/1641396/muvna-2011-720p-cz.part3.rar
http://www.fastshare.cz/1641403/muvna-2011-720p-cz.part4.rar
http://www.fastshare.cz/1641408/muvna-2011-720p-cz.part5.rar

kód:

http://download.hellshare.com/muvna-2011-720p-cz-part1-rar/8934201/
http://download.hellshare.com/muvna-2011-720p-cz-part2-rar/8934241/
http://download.hellshare.com/muvna-2011-720p-cz-part3-rar/8934276/
http://download.hellshare.com/muvna-2011-720p-cz-part4-rar/8934310/
http://download.hellshare.com/muvna-2011-720p-cz-part5-rar/8934341/

kód:

http://czshare.com/3380091/Muvna+2011+720p+CZ.part1.rar
http://czshare.com/3380143/Muvna+2011+720p+CZ.part2.rar
http://czshare.com/3380182/Muvna+2011+720p+CZ.part3.rar
http://czshare.com/3382249/Muvna+2011+720p+CZ.part4.rar
http://czshare.com/3382263/Muvna+2011+720p+CZ.part5.rar


Upload 3% na oprawu dat

no pass
Návrat hore Goto down
Zobrazit informácie o autorovi
 
Muži v naději /2011
Návrat hore 
Strana 1 z 1

Povolenie tohoto fóra:Nemôžete odpovedať na témy v tomto fóre.
Best Forum :: Filmy Download :: SK/CZ dabing-
Prejdi na: