Best Forum
 
DomovGalleryRegistráciaPrihlásenie

Share
 

 Dream House /2011

Goto down 
AutorSpráva
Jack86
Pokročilý
Pokročilý


Počet príspevkov : 133
Registration date : 10.02.2010

Dream House /2011 Empty
OdoslaťPredmet: Dream House /2011   Dream House /2011 Icon_minitime1Pi august 31, 2012 1:11 am

Dream House /2011 Dreamhfyf

Drama / Mysteriózní / Thriller
USA, 2011, 90 min

Režie: Jim Sheridan
Hudba: John Debney
Hrají: Daniel Craig, Naomi Watts, Rachel Weisz, Marton Csokas, Taylor Geare, Elias Koteas, Jane Alexander, Sarah Gadon


Dream House /2011 Csfdlrzuz

Úspěšný vydavatel Will Atenton (Daniel Craig) skončí s prací v New Yorku, aby se společně se svou ženou Libby (Rachel Weisz) a svými dvěma dcerami přestěhoval do klidného městečka v Nové Anglii. Zatímco se ve svém novém životě zabydlují, zjišťují, že jejich dokonalý domov byl dějištěm vraždy matky a jejích dětí. Celé město je přesvědčeno, že zemřeli rukou svého manžela a otce, který celý incident přežil. Když se Will pustí do pátrání o podrobnostech celé tragédie, zavede ho jediná stopa k Ann Patersonové (Naomi Watts), sousedce, která měla k zavražděné ro…

[size=140]Dream.House.2011.720p.BluRay.x264-ALLiANCE[/size]

kód:
Dream.House.2011.720p.BluRay.x264-ALLiANCE
Format                          : Matroska
File size                        : 4.37 GiB
Duration                        : 1h 31mn
Overall bit rate                : 6 807 Kbps
Encoded date                    : UTC 2012-01-19 21:28:19
Writing application              : mkvmerge v4.4.0 ('Die Wiederkehr') built on Oct 31 2010 21:52:48
Writing library                  : libebml v1.0.0 + libmatroska v1.0.0

Video
ID                              : 1
Format                          : AVC
Format/Info                      : Advanced Video Codec
Format profile                  : High@L4.1
Format settings, CABAC          : Yes
Format settings, ReFrames        : 5 frames
Muxing mode                      : Header stripping
Codec ID                        : V_MPEG4/ISO/AVC
Duration                        : 1h 31mn
Bit rate                        : 5 300 Kbps
Width                            : 1 280 pixels
Height                          : 536 pixels
Display aspect ratio            : 2.35:1
Frame rate                      : 23.976 fps
Color space                      : YUV
Chroma subsampling              : 4:2:0
Bit depth                        : 8 bits
Scan type                        : Progressive
Bits/(Pixel*Frame)              : 0.322
Stream size                      : 3.31 GiB (76%)
Writing library                  : x264 core 120 r2145 748fe16
Encoding settings                : cabac=1 / ref=5 / deblock=1:0:0 / analyse=0x3:0x133 / me=umh / subme=7 / psy=1 / psy_rd=1.00:0.00 / mixed_ref=1 / me_range=16 / chroma_me=1 / trellis=1 / 8x8dct=1 / cqm=0 / deadzone=21,11 / fast_pskip=0 / chroma_qp_offset=-2 / threads=12 / sliced_threads=0 / nr=0 / decimate=1 / interlaced=0 / bluray_compat=0 / constrained_intra=0 / bframes=3 / b_pyramid=2 / b_adapt=1 / b_bias=0 / direct=1 / weightb=1 / open_gop=0 / weightp=2 / keyint=250 / keyint_min=23 / scenecut=40 / intra_refresh=0 / rc_lookahead=40 / rc=2pass / mbtree=1 / bitrate=5300 / ratetol=1.0 / qcomp=0.60 / qpmin=0 / qpmax=69 / qpstep=4 / cplxblur=20.0 / qblur=0.5 / ip_ratio=1.40 / aq=1:1.00
Language                        : English

Audio
ID                              : 2
Format                          : DTS
Format/Info                      : Digital Theater Systems
Muxing mode                      : Header stripping
Codec ID                        : A_DTS
Duration                        : 1h 31mn
Bit rate mode                    : Constant
Bit rate                        : 1 510 Kbps
Channel(s)                      : 6 channels
Channel positions                : Front: L C R, Side: L R, LFE
Sampling rate                    : 48.0 KHz
Bit depth                        : 24 bits
Compression mode                : Lossy
Delay relative to video          : 11ms
Stream size                      : 992 MiB (22%)
Language                        : English

Text #1
ID                              : 3
Format                          : UTF-8
Codec ID                        : S_TEXT/UTF8
Codec ID/Info                    : UTF-8 Plain Text
Language                        : English

Text #2
ID                              : 4
Format                          : UTF-8
Codec ID                        : S_TEXT/UTF8
Codec ID/Info                    : UTF-8 Plain Text
Language                        : Czech

Text #3
ID                              : 5
Format                          : UTF-8
Codec ID                        : S_TEXT/UTF8
Codec ID/Info                    : UTF-8 Plain Text
Language                        : Slovak

Sample
kód:

http://sharerapid.biz/stahuj/3804330/dem-hue-2011-720p-eng.mkv?dealer_id=29875

5x900 MB / 1x111.35 MB
kód:

http://sharerapid.biz/stahuj/3804301/dem-hue-2011-720p-eng-part1.rar?dealer_id=29875
http://sharerapid.biz/stahuj/3804310/dem-hue-2011-720p-eng-part2.rar?dealer_id=29875
http://sharerapid.biz/stahuj/3804316/dem-hue-2011-720p-eng-part3.rar?dealer_id=29875
http://sharerapid.biz/stahuj/3804325/dem-hue-2011-720p-eng-part4.rar?dealer_id=29875
http://sharerapid.biz/stahuj/3804328/dem-hue-2011-720p-eng-part5.rar?dealer_id=29875
http://sharerapid.biz/stahuj/3804329/dem-hue-2011-720p-eng-part6.rar?dealer_id=29875

kód:

http://euroshare.eu/file/15532355/dem.hue.2011.720p.eng.part1.rar
http://euroshare.eu/file/15532358/dem.hue.2011.720p.eng.part2.rar
http://euroshare.eu/file/15532360/dem.hue.2011.720p.eng.part3.rar
http://euroshare.eu/file/15532362/dem.hue.2011.720p.eng.part4.rar
http://euroshare.eu/file/15532364/dem.hue.2011.720p.eng.part5.rar
http://euroshare.eu/file/15532365/dem.hue.2011.720p.eng.part6.rar

kód:

http://www.fastshare.cz/1616710/dem.hue.2011.720p.eng.part1.rar
http://www.fastshare.cz/1616712/dem.hue.2011.720p.eng.part2.rar
http://www.fastshare.cz/1616717/dem.hue.2011.720p.eng.part3.rar
http://www.fastshare.cz/1616720/dem.hue.2011.720p.eng.part4.rar
http://www.fastshare.cz/1616724/dem.hue.2011.720p.eng.part5.rar
http://www.fastshare.cz/1616726/dem.hue.2011.720p.eng.part6.rar

kód:

http://download.hellshare.com/dem-hue-2011-720p-eng-part1-rar/8705782/
http://download.hellshare.com/dem-hue-2011-720p-eng-part2-rar/8705796/
http://download.hellshare.com/dem-hue-2011-720p-eng-part3-rar/8705808/
http://download.hellshare.com/dem-hue-2011-720p-eng-part4-rar/8705827/
http://download.hellshare.com/dem-hue-2011-720p-eng-part5-rar/8705838/
http://download.hellshare.com/dem-hue-2011-720p-eng-part6-rar/8705839/

kód:

http://czshare.com/3263213/Dem.Hue.2011.720p.ENG.part1.rar
http://czshare.com/3263220/Dem.Hue.2011.720p.ENG.part2.rar
http://czshare.com/3263226/Dem.Hue.2011.720p.ENG.part3.rar
http://czshare.com/3263234/Dem.Hue.2011.720p.ENG.part4.rar
http://czshare.com/3263241/Dem.Hue.2011.720p.ENG.part5.rar
http://czshare.com/3263242/Dem.Hue.2011.720p.ENG.part6.rar


Upload 3% na oprawu dat

no pass
Návrat hore Goto down
Zobrazit informácie o autorovi
 
Dream House /2011
Návrat hore 
Strana 1 z 1

Povolenie tohoto fóra:Nemôžete odpovedať na témy v tomto fóre.
Best Forum :: Filmy Download :: HD-
Prejdi na: